Ergebnis 1 bis 1 von 1

Thema: Kizumonogatari I: Tekketsu-hen [Jap-Dub][Eng-Sub][720p/1080p][BluRay] - NoobSubs

Dieser Thread wurde noch nicht bewertet. Bewerte ihn doch, wenn er dir gefällt!
  1. #1
    Soundtrackmensch Avatar von Kalchi
    Registriert seit
    Apr 2016
    Ort
    Österreich
    Beiträge
    240
    Punkte
    3.019
    Errungenschaften:
    HyperaktivGalerie Aussteller1000 ErfahrungspunkteTomodachisTagger Amateur

    Kizumonogatari I: Tekketsu-hen [Jap-Dub][Eng-Sub][720p/1080p][BluRay] - NoobSubs


    Kizumonogatari I: Tekketsu-hen






    Kurzbeschreibung:
    Zitat Zitat von Myanimelist.net
    March 25th—just another day during spring break.

    Koyomi Araragi, a second year high school student at Naoetsu High School, befriends Tsubasa Hanekawa, the top honors student at his school. Tsubasa mentions a rumor about a "blonde vampire" that has been sighted around their town recently. Koyomi, who is usually anti-social, takes a liking to Tsubasa's down-to-earth personality.

    That evening, Koyomi encounters this rumored vampire: she is Kiss-shot Acerola-orion Heart-under-blade, also known as the "King of Apparitions." The blonde, golden-eyed vampire cries out for Koyomi to save her as she lies in a pool of her own blood, all four of her limbs cut off.

    Kiss-shot asks Koyomi to give her his blood in order to save her life, and when he does, the very next moment he awakes, Koyomi finds himself re-born as her vampire kin.

    As Koyomi struggles to accept his existence, Kiss-shot whispers,

    "Welcome to the world of darkness..."


    Spieldauer: 64Min
    Genre: Action, Horror
    Mystery, Supernatural, Vampire
    Jahr: 2016
    Sprache: Japanisch
    Untertitel: Englisch
    Größe pro Folge: 930 MiB / 1.97 GiB
    Episodenanzahl: 1/1
    Format: MP4
    Auflösung: 720p (16:9) / 1080p (16:9)
    Videocodec: x264 (AVC)
    Audiocodec: AAC / AC-3
    Releasegruppe: NoobSubs
    Hoster: Uploaded


    MediaInfo

    720p
    Code:
    
    Format                                   : MPEG-4
    Format profile                           : Base Media
    Codec ID                                 : isom
    File size                                : 930 MiB
    Duration                                 : 1h 3mn
    Overall bit rate mode                    : Variable
    Overall bit rate                         : 2 051 Kbps
    Movie name                               : [NoobSubs] Kizumonogatari Movie I - Tekketsu-hen (720p Blu-ray 8bit AAC)
    Album                                    : Kizumonogatari I: Tekketsu-hen / Kizumonogatari Part 1: Iron-Blooded Arc - Scar Story
    Track name/Position                      : 1
    Performer                                : Subs: Modified [Commie]
    Encoded date                             : UTC 2016-08-10 21:52:48
    Tagged date                              : UTC 2016-08-10 21:55:26
    replaygain_track_gain                    : +0.60 dB
    replaygain_track_minmax                  : 97,186
    replaygain_track_peak                    : 1.750000
    replaygain_undo                          : -10,-10
    
    Video
    ID                                       : 1
    Format                                   : AVC
    Format/Info                              : Advanced Video Codec
    Format profile                           : [email protected]
    Format settings, CABAC                   : Yes
    Format settings, ReFrames                : 6 frames
    Codec ID                                 : avc1
    Codec ID/Info                            : Advanced Video Coding
    Duration                                 : 1h 3mn
    Bit rate                                 : 1 834 Kbps
    Maximum bit rate                         : 15.1 Mbps
    Width                                    : 1 280 pixels
    Height                                   : 720 pixels
    Display aspect ratio                     : 16:9
    Frame rate mode                          : Constant
    Frame rate                               : 23.976 fps
    Color space                              : YUV
    Chroma subsampling                       : 4:2:0
    Bit depth                                : 8 bits
    Scan type                                : Progressive
    Bits/(Pixel*Frame)                       : 0.083
    Stream size                              : 831 MiB (89%)
    Title                                    : [email protected]
    Writing library                          : x264 core 148 r2665 a01e339
    Encoding settings                        : cabac=1 / ref=6 / deblock=1:0:0 / analyse=0x3:0x133 / me=umh / subme=10 / psy=1 / psy_rd=1.00:0.00 / mixed_ref=1 / me_range=24 / chroma_me=1 / trellis=2 / 8x8dct=1 / cqm=0 / deadzone=21,11 / fast_pskip=1 / chroma_qp_offset=-2 / threads=12 / lookahead_threads=2 / sliced_threads=0 / nr=0 / decimate=1 / interlaced=0 / bluray_compat=0 / constrained_intra=0 / bframes=7 / b_pyramid=2 / b_adapt=2 / b_bias=0 / direct=3 / weightb=1 / open_gop=0 / weightp=2 / keyint=250 / keyint_min=23 / scenecut=40 / intra_refresh=0 / rc_lookahead=60 / rc=crf / mbtree=1 / crf=17.3 / qcomp=0.60 / qpmin=0 / qpmax=69 / qpstep=4 / ip_ratio=1.40 / aq=1:1.50
    Encoded date                             : UTC 2016-08-10 21:52:48
    Tagged date                              : UTC 2016-08-10 21:52:58
    
    Audio
    ID                                       : 2
    Format                                   : AAC
    Format/Info                              : Advanced Audio Codec
    Format profile                           : LC
    Codec ID                                 : 40
    Duration                                 : 1h 3mn
    Bit rate mode                            : Variable
    Bit rate                                 : 214 Kbps
    Maximum bit rate                         : 307 Kbps
    Channel(s)                               : 2 channels
    Channel positions                        : Front: L R
    Sampling rate                            : 48.0 KHz
    Compression mode                         : Lossy
    Stream size                              : 97.0 MiB (10%)
    Encoded date                             : UTC 2016-08-09 23:26:30
    Tagged date                              : UTC 2016-08-10 21:52:58
    
    


    1080p
    Code:
    
    Format                                   : MPEG-4
    Format profile                           : Base Media
    Codec ID                                 : isom
    File size                                : 1.97 GiB
    Duration                                 : 1h 3mn
    Overall bit rate                         : 4 462 Kbps
    Movie name                               : [NoobSubs] Kizumonogatari Movie I - Tekketsu-hen (1080p Blu-ray 8bit AC3)
    Album                                    : Kizumonogatari I: Tekketsu-hen / Kizumonogatari Part 1: Iron-Blooded Arc - Scar Story
    Track name/Position                      : 1
    Performer                                : Subs: Modified [Commie]
    Encoded date                             : UTC 2016-08-10 21:51:03
    Tagged date                              : UTC 2016-08-10 21:51:03
    
    Video
    ID                                       : 1
    Format                                   : AVC
    Format/Info                              : Advanced Video Codec
    Format profile                           : [email protected]
    Format settings, CABAC                   : Yes
    Format settings, ReFrames                : 4 frames
    Codec ID                                 : avc1
    Codec ID/Info                            : Advanced Video Coding
    Duration                                 : 1h 3mn
    Bit rate                                 : 3 820 Kbps
    Maximum bit rate                         : 24.8 Mbps
    Width                                    : 1 920 pixels
    Height                                   : 1 080 pixels
    Display aspect ratio                     : 16:9
    Frame rate mode                          : Constant
    Frame rate                               : 23.976 fps
    Color space                              : YUV
    Chroma subsampling                       : 4:2:0
    Bit depth                                : 8 bits
    Scan type                                : Progressive
    Bits/(Pixel*Frame)                       : 0.077
    Stream size                              : 1.69 GiB (86%)
    Title                                    : [email protected]
    Writing library                          : x264 core 148 r2665 a01e339
    Encoding settings                        : cabac=1 / ref=4 / deblock=1:0:0 / analyse=0x3:0x133 / me=umh / subme=10 / psy=1 / psy_rd=1.00:0.00 / mixed_ref=1 / me_range=24 / chroma_me=1 / trellis=2 / 8x8dct=1 / cqm=0 / deadzone=21,11 / fast_pskip=1 / chroma_qp_offset=-2 / threads=12 / lookahead_threads=2 / sliced_threads=0 / nr=0 / decimate=1 / interlaced=0 / bluray_compat=0 / constrained_intra=0 / bframes=7 / b_pyramid=2 / b_adapt=2 / b_bias=0 / direct=3 / weightb=1 / open_gop=0 / weightp=2 / keyint=250 / keyint_min=23 / scenecut=40 / intra_refresh=0 / rc_lookahead=60 / rc=crf / mbtree=1 / crf=17.3 / qcomp=0.60 / qpmin=0 / qpmax=69 / qpstep=4 / ip_ratio=1.40 / aq=1:1.50
    Encoded date                             : UTC 2016-08-10 21:51:03
    Tagged date                              : UTC 2016-08-10 21:51:39
    
    Audio
    ID                                       : 2
    Format                                   : AC-3
    Format/Info                              : Audio Coding 3
    Mode extension                           : CM (complete main)
    Format settings, Endianness              : Big
    Codec ID                                 : ac-3
    Duration                                 : 1h 3mn
    Bit rate mode                            : Constant
    Bit rate                                 : 640 Kbps
    Maximum bit rate                         : 676 Kbps
    Channel(s)                               : 6 channels
    Channel positions                        : Front: L C R, Side: L R, LFE
    Sampling rate                            : 48.0 KHz
    Bit depth                                : 16 bits
    Compression mode                         : Lossy
    Stream size                              : 290 MiB (14%)
    Title                                    : 1][4929D3E2].[email protected]
    Encoded date                             : UTC 2016-08-10 21:51:27
    Tagged date                              : UTC 2016-08-10 21:51:39
    
    






    Geschützter Bereich - Bedanke dich beim Poster, um den Bereich sehen zu können
    Hier erfährst Du wie Du Dich bedanken kannst oder werde jetzt Premium Mitglied ab einer Spende von 5€ und erhalte sofortigen Zugriff auf den Downloadbereich!


    [Links sind nur für registrierte und aktivierte Nutzer sichtbar. Klicke hier um dich zu registrieren.]
    Geändert von Kalchi (18. September 2016 um 20:34 Uhr) Grund: 1080p hinzugefügt

    Meine Animeliste: [Links sind nur für registrierte und aktivierte Nutzer sichtbar. Klicke hier um dich zu registrieren.] :D
    Mein [Links sind nur für registrierte und aktivierte Nutzer sichtbar. Klicke hier um dich zu registrieren.] (bald wieder aktiv :D)
    Re-Upload/Mirror Anfragen einfach per Pn (Mit Threadlink)
    „In every age, and every world, the strong sharpen their fangs while the weak polish their wits.“ ~ Sora (No Game no Life)

  2. 17 Benutzer sagen Danke:

    dadoc91 (21. October 2016),Daran2010 (11. November 2016),elkeZ (27. November 2016),Griever (28. September 2016),GutiHaz_14 (31. October 2016),Holzmodem (18. September 2016),inst4gib (30. November 2016),kashmael (20. October 2016),KuraikoSayo (1. November 2016),Magicmanx (2. December 2016),ManunaM (2. December 2016),S1M0N93 (1. October 2016),Simon Jack (26. October 2016),Solah (30. October 2016),torusso12 (24. September 2016),Xenom (5. November 2016),zockerfreund (25. September 2016)

Lesezeichen

Berechtigungen

  • Neue Themen erstellen: Nein
  • Themen beantworten: Nein
  • Anhänge hochladen: Nein
  • Beiträge bearbeiten: Nein
  •  

1 2 3 4 5 6 7 8 9 10 11 12 13 14 15 16 17 18 19 20 21 22 23 24 25 26 27 28 29 30 31 32 33 34 35 36 37 38 39 40 41 42 43 44 45 46 47 48 49 50 51 52 53 54 55 56 57 58 59 60 61 62 63 64 65 66 67 68 69 70 71 72 73 74 75 76 77 78 79 80 81 82 83 84 85 86 87 88 89 90 91 92 93 94 95 96 97 98 99 100 101 102 103 104 105 106 107 108 109 110 111 112 113 114 115 116 117 118 119 120 121 122 123 124 125 126 127 128 129 130 131 132 133 134 135 136 137 138 139 140 141 142 143 144 145 146 147 148 149 150 151 152 153 154 155 156 157 158