Ergebnis 1 bis 2 von 2

Thema: High School DxD BorN + Special [Eingestellt][Jap-Dub][PCM][1080p][BluRay/RAW] - FB

Dieser Thread wurde noch nicht bewertet. Bewerte ihn doch, wenn er dir gefällt!
  1. #1
    Uploader Avatar von Filbo11
    Registriert seit
    Jan 2015
    Beiträge
    926
    Punkte
    17.174
    Errungenschaften:
    TomodachisErste Gruppe1 Jahr registriertCreated Album picturesTagger First Class

    High School DxD BorN + Special [Eingestellt][Jap-Dub][PCM][1080p][BluRay/RAW] - FB

    High School DxD BorN
    ハイスクールDxD BorN
    HighSchool DxD Season 3




    Beschreibung

    Dritte Staffel von High School DxD.

    Format: mkv
    Dauer: ca. 24 min
    Größe: ca. 1,8 GB
    Sprache: Japanisch
    Releaser: [FB=Filbo11]
    Hoster: Uploaded.net & Share-Online.biz
    Passwort: byFilbo11


    Screenshots & Info

    Spoiler
    [Links sind nur für registrierte und aktivierte Nutzer sichtbar. Klicke hier um dich zu registrieren.]

    Code:
    General
    
    Complete name               : [FB] High School DxD BorN [01] (BD 1080p x264 PCM).mkv
    Format                      : Matroska
    Format version              : Version 4 / Version 2
    File size                   : 1.89 GiB
    Duration                    : 23mn 42s
    Overall bit rate            : 11.4 Mbps
    Movie name                  : [FB] High School DxD BorN [01]
    Encoded date                : UTC 2016-01-11 15:50:09
    Writing application         : mkvmerge v8.8.0 ('Wind at my back') 64bit
    Writing library             : libebml v1.3.3 + libmatroska v1.4.4
    
    Video
    ID                          : 1
    Format                      : AVC
    Format/Info                 : Advanced Video Codec
    Format profile              : [email protected]
    Format settings, CABAC      : Yes
    Format settings, ReFrames   : 4 frames
    Codec ID                    : V_MPEG4/ISO/AVC
    Duration                    : 23mn 42s
    Bit rate                    : 9 857 Kbps
    Width                       : 1 920 pixels
    Height                      : 1 080 pixels
    Display aspect ratio        : 16:9
    Frame rate mode             : Constant
    Frame rate                  : 23.976 (24000/1001) fps
    Color space                 : YUV
    Chroma subsampling          : 4:2:0
    Bit depth                   : 8 bits
    Scan type                   : Progressive
    Bits/(Pixel*Frame)          : 0.198
    Stream size                 : 1.63 GiB (86%)
    Title                       : byFilbo11
    Writing library             : x264 core 146 r2538 121396c
    Encoding settings           : cabac=1 / ref=4 / deblock=1:0:0 / analyse=0x3:0x113 / me=umh / subme=8 / psy=1 / psy_rd=1.00:0.00 / mixed_ref=1 / me_range=16 / chroma_me=1 / trellis=1 / 8x8dct=1 / cqm=0 / deadzone=21,11 / fast_pskip=1 / chroma_qp_offset=-2 / threads=6 / lookahead_threads=2 / sliced_threads=0 / nr=0 / decimate=1 / interlaced=0 / bluray_compat=0 / constrained_intra=0 / bframes=8 / b_pyramid=2 / b_adapt=2 / b_bias=0 / direct=3 / weightb=1 / open_gop=0 / weightp=2 / keyint=250 / keyint_min=23 / scenecut=40 / intra_refresh=0 / rc_lookahead=50 / rc=crf / mbtree=1 / crf=16.0 / qcomp=0.60 / qpmin=0 / qpmax=69 / qpstep=4 / ip_ratio=1.40 / aq=1:1.00
    Default                     : Yes
    Forced                      : No
    
    Audio
    ID                          : 2
    Format                      : PCM
    Format settings, Endianness : Big
    Codec ID                    : A_PCM/INT/BIG
    Duration                    : 23mn 42s
    Bit rate mode               : Constant
    Bit rate                    : 1 536 Kbps
    Channel(s)                  : 2 channels
    Sampling rate               : 48.0 KHz
    Frame rate                  : 200.000 fps (240 spf)
    Bit depth                   : 16 bits
    Stream size                 : 260 MiB (13%)
    Language                    : Japanese
    Default                     : Yes
    Forced                      : No
    
    Menu
    00:00:00.000                : en:Prologue
    00:02:57.177                : en:Opening
    00:04:27.267                : en:Part A
    00:13:43.823                : en:Part B
    00:21:56.315                : en:Ending
    00:23:26.405                : en:Preview
    [Links sind nur für registrierte und aktivierte Nutzer sichtbar. Klicke hier um dich zu registrieren.]

    Code:
    General
    
    Complete name               : [FB] High School DxD BorN [SP01] (BD 1080p x264 PCM).mkv
    Format                      : Matroska
    Format version              : Version 4 / Version 2
    File size                   : 238 MiB
    Duration                    : 3mn 18s
    Overall bit rate            : 10.1 Mbps
    Movie name                  : [FB] High School DxD BorN [SP01]
    Encoded date                : UTC 2016-01-12 09:34:02
    Writing application         : mkvmerge v8.8.0 ('Wind at my back') 64bit
    Writing library             : libebml v1.3.3 + libmatroska v1.4.4
    
    Video
    ID                          : 1
    Format                      : AVC
    Format/Info                 : Advanced Video Codec
    Format profile              : [email protected]
    Format settings, CABAC      : Yes
    Format settings, ReFrames   : 4 frames
    Codec ID                    : V_MPEG4/ISO/AVC
    Duration                    : 3mn 18s
    Bit rate                    : 8 545 Kbps
    Width                       : 1 920 pixels
    Height                      : 1 080 pixels
    Display aspect ratio        : 16:9
    Frame rate mode             : Constant
    Frame rate                  : 23.976 (24000/1001) fps
    Color space                 : YUV
    Chroma subsampling          : 4:2:0
    Bit depth                   : 8 bits
    Scan type                   : Progressive
    Bits/(Pixel*Frame)          : 0.172
    Stream size                 : 202 MiB (85%)
    Title                       : byFilbo11
    Writing library             : x264 core 146 r2538 121396c
    Encoding settings           : cabac=1 / ref=4 / deblock=1:0:0 / analyse=0x3:0x113 / me=umh / subme=8 / psy=1 / psy_rd=1.00:0.00 / mixed_ref=1 / me_range=16 / chroma_me=1 / trellis=1 / 8x8dct=1 / cqm=0 / deadzone=21,11 / fast_pskip=1 / chroma_qp_offset=-2 / threads=6 / lookahead_threads=2 / sliced_threads=0 / nr=0 / decimate=1 / interlaced=0 / bluray_compat=0 / constrained_intra=0 / bframes=8 / b_pyramid=2 / b_adapt=2 / b_bias=0 / direct=3 / weightb=1 / open_gop=0 / weightp=2 / keyint=250 / keyint_min=23 / scenecut=40 / intra_refresh=0 / rc_lookahead=50 / rc=crf / mbtree=1 / crf=16.0 / qcomp=0.60 / qpmin=0 / qpmax=69 / qpstep=4 / ip_ratio=1.40 / aq=1:1.00
    Default                     : Yes
    Forced                      : No
    
    Audio
    ID                          : 2
    Format                      : PCM
    Format settings, Endianness : Big
    Codec ID                    : A_PCM/INT/BIG
    Duration                    : 3mn 18s
    Bit rate mode               : Constant
    Bit rate                    : 1 536 Kbps
    Channel(s)                  : 2 channels
    Sampling rate               : 48.0 KHz
    Frame rate                  : 200.000 fps (240 spf)
    Bit depth                   : 16 bits
    Stream size                 : 36.3 MiB (15%)
    Language                    : Japanese
    Default                     : Yes
    Forced                      : No


    Alle Mirrors untereinander kompatibel
    Folgen einzeln ladbar
    Folge 4/12 online + 2/?? Special


    Download

    Geschützter Bereich - Bedanke dich beim Poster, um den Bereich sehen zu können
    Hier erfährst Du wie Du Dich bedanken kannst oder werde jetzt Premium Mitglied ab einer Spende von 5€ und erhalte sofortigen Zugriff auf den Downloadbereich!


    Geändert von Filbo11 (10. February 2016 um 22:31 Uhr) Grund: info von der Special hinzugefügt

    [Links sind nur für registrierte und aktivierte Nutzer sichtbar. Klicke hier um dich zu registrieren.]

    Ich wäre allen sehr dankbar, die mir gravierende Fehler in meinen Releases per PN melden

  2. 17 Benutzer sagen Danke:

    bra1nbug94 (12. January 2016),brunsdumm (12. January 2016),Cande (12. January 2016),chopper23 (11. January 2016),Homemaster (12. January 2016),Infi (18. January 2016),Kartox (25. March 2016),lol3333 (15. January 2016),neon (23. January 2016),Noire16 (6. February 2016),old nick (15. January 2016),Regi (8. March 2016),Rias10000 (2. June 2016),rinnegan93 (19. November 2016),samuuil (29. May 2016),UndeadBan (27. June 2016),Windwusel (12. January 2016)

  3. #2
    Uploader Avatar von Filbo11
    Registriert seit
    Jan 2015
    Beiträge
    926
    Punkte
    17.174
    Errungenschaften:
    TomodachisErste Gruppe1 Jahr registriertCreated Album picturesTagger First Class

    AW: High School DxD BorN + Special [Jap-Dub][PCM][1080p][BluRay/RAW] - FB

    folge 3 & 4 + 2 Special hinzugefügt

    [Links sind nur für registrierte und aktivierte Nutzer sichtbar. Klicke hier um dich zu registrieren.]

    Ich wäre allen sehr dankbar, die mir gravierende Fehler in meinen Releases per PN melden

Stichworte

Lesezeichen

Berechtigungen

  • Neue Themen erstellen: Nein
  • Themen beantworten: Nein
  • Anhänge hochladen: Nein
  • Beiträge bearbeiten: Nein
  •  

1 2 3 4 5 6 7 8 9 10 11 12 13 14 15 16 17 18 19 20 21 22 23 24 25 26 27 28 29 30 31 32 33 34 35 36 37 38 39 40 41 42 43 44 45 46 47 48 49 50 51 52 53 54 55 56 57 58 59 60 61 62 63 64 65 66 67 68 69 70 71 72 73 74 75 76 77 78 79 80 81 82 83 84 85 86 87 88 89 90 91 92 93 94 95 96 97 98 99 100 101 102 103 104 105 106 107 108 109 110 111 112 113 114 115 116 117 118 119 120 121 122 123 124 125 126 127 128 129 130 131 132 133 134 135 136 137 138 139 140 141 142 143 144 145 146 147 148 149 150 151 152 153 154 155 156 157 158