Ergebnis 1 bis 1 von 1

Thema: Strike Witches S1 [2008][BluRay][UT]

Dieser Thread wurde noch nicht bewertet. Bewerte ihn doch, wenn er dir gefällt!
  1. #1
    Kleiner Experte
    Registriert seit
    Sep 2013
    Ort
    Leider die Realität
    Beiträge
    94
    Punkte
    3.366
    Errungenschaften:
    Tomodachis1000 ErfahrungspunkteHikikomori

    Strike Witches S1 [2008][BluRay][UT]

    Strike Witches
    Strike Witches TV
    Strike Witches ストライクウィッチーズ






    Kurzbeschreibung:

    Im Jahr 1939 erschienen zum ersten Mal die menschenfeindlichen Neuroi auf der Erde. Ihre Herkunft und ihre Motive sind bisher unbekannt, doch zur Verteidigung richteten die Menschen die sogenannte "Strike Unit" zur Bekämpfung dieser Wesen ein. Unter ihnen befinden sich auch junge Frauen mit magischen Fähigkeiten, sie bilden die Elite Einheit der "Strike Witches" und setzten ihre Magie zur Bekämpfung aber auch zum Heilen von Verwundeten etc. ein. Eine von ihnen ist auch die junge Yoshika Miyafumi, die eine ganz besondere Motivation hat für die Menschen zu kämpfen...

    Hinweis:
    Strike Witches Season 1 Only | AVC BD50+BD25

    Größe: ~5,9 GB pro Folge [Gesamt: ~ca. 70GB]
    Episodenanzahl: 12/12
    Format: .mts
    Audio Language: Japanese | English
    Audio: DD TrueHD 2.0 | DD TrueHD 5.1
    Auflösung: 1080p (1920x1080, 16:9)
    Source: Strike Witches BluRay
    Gruppe: MasterRei

    Subtitle: Original PGS BluRay Subtitel (English)
    Menü: Untouched
    Video: Untouched
    Audio: Untouched
    Extras: Untouched

    Archiv Format: *.7Z / *.tar

    Hoster: Share-Online ; Uploaded


    Datei Info:
    Spoiler

    Code:
    
    eneral
    ID                                       : 0 (0x0)
    Complete name                            : /media/masterrei/Volume/RAWS/Strike Witches S1/Strike Witches (2008) (CD 1)/STREAM/00036.m2ts
    Format                                   : BDAV
    Format/Info                              : Blu-ray Video
    File size                                : 5.47 GiB
    Duration                                 : 24mn 12s
    Overall bit rate mode                    : Variable
    Overall bit rate                         : 32.4 Mbps
    Maximum Overall bit rate                 : 48.0 Mbps
    
    Video
    ID                                       : 4113 (0x1011)
    Menu ID                                  : 1 (0x1)
    Format                                   : AVC
    Format/Info                              : Advanced Video Codec
    Format profile                           : [email protected]
    Format settings, CABAC                   : Yes
    Format settings, ReFrames                : 4 frames
    Codec ID                                 : 27
    Duration                                 : 24mn 11s
    Bit rate mode                            : Variable
    Bit rate                                 : 30.4 Mbps
    Maximum bit rate                         : 39.0 Mbps
    Width                                    : 1 920 pixels
    Height                                   : 1 080 pixels
    Display aspect ratio                     : 16:9
    Frame rate                               : 23.976 fps
    Color space                              : YUV
    Chroma subsampling                       : 4:2:0
    Bit depth                                : 8 bits
    Scan type                                : Progressive
    Bits/(Pixel*Frame)                       : 0.612
    Stream size                              : 5.14 GiB (94%)
    
    Audio #1
    ID                                       : 4352 (0x1100)
    Menu ID                                  : 1 (0x1)
    Format                                   : TrueHD / AC-3
    Mode extension                           : CM (complete main)
    Format settings, Endianness              : Big
    Muxing mode                              : Stream extension
    Codec ID                                 : 131
    Duration                                 : 24mn 11s
    Bit rate mode                            : Variable / Constant
    Bit rate                                 : 448 Kbps
    Maximum bit rate                         : 3 420 Kbps
    Channel(s)                               : 6 channels
    Channel positions                        : Front: L C R, Side: L R, LFE
    Sampling rate                            : 48.0 KHz
    Bit depth                                : 16 bits
    Stream size                              : 77.5 MiB (1%)
    
    Audio #2
    ID                                       : 4353 (0x1101)
    Menu ID                                  : 1 (0x1)
    Format                                   : TrueHD / AC-3
    Mode extension                           : CM (complete main)
    Format settings, Endianness              : Big
    Muxing mode                              : Stream extension
    Codec ID                                 : 131
    Duration                                 : 24mn 11s
    Bit rate mode                            : Variable / Constant
    Bit rate                                 : 192 Kbps
    Maximum bit rate                         : 1 179 Kbps
    Channel(s)                               : 2 channels
    Channel positions                        : Front: C / Front: L R
    Sampling rate                            : 48.0 KHz
    Bit depth                                : 16 bits
    Stream size                              : 33.2 MiB (1%)
    
    Text #1
    ID                                       : 4608 (0x1200)
    Menu ID                                  : 1 (0x1)
    Format                                   : PGS
    Codec ID                                 : 144
    Duration                                 : 24mn 2s
    Delay relative to video                  : 8s 8ms
    
    Text #2
    ID                                       : 4609 (0x1201)
    Menu ID                                  : 1 (0x1)
    Format                                   : PGS
    Codec ID                                 : 144
    
    







    Download
    Geschützter Bereich - Bedanke dich beim Poster, um den Bereich sehen zu können
    Hier erfährst Du wie Du Dich bedanken kannst oder werde jetzt Premium Mitglied ab einer Spende von 5€ und erhalte sofortigen Zugriff auf den Downloadbereich!


    Geschützter Bereich - Bedanke dich beim Poster, um den Bereich sehen zu können
    Hier erfährst Du wie Du Dich bedanken kannst oder werde jetzt Premium Mitglied ab einer Spende von 5€ und erhalte sofortigen Zugriff auf den Downloadbereich!



    >Re-Upload & Support >>NUR<< auf Anfrage per PN<
    >Fehler oder sonstige Anfragen ebenfalls NUR via PN<

    >>Meine Releases werden >>NUR<< mit meiner Zustimmung gemirrored!<<

  2. 10 Benutzer sagen Danke:

    janik2009 (24. November 2016),Jinnay (17. May 2015),lol3333 (31. December 2015),mclaurier (12. May 2015),midnighter (15. June 2015),nuggl (21. January 2016),SantaKlaus (15. May 2015),tigerhai (23. April 2016),Vagabund (1. December 2016),XRA9 (17. May 2015)

Lesezeichen

Berechtigungen

  • Neue Themen erstellen: Nein
  • Themen beantworten: Nein
  • Anhänge hochladen: Nein
  • Beiträge bearbeiten: Nein
  •  

1 2 3 4 5 6 7 8 9 10 11 12 13 14 15 16 17 18 19 20 21 22 23 24 25 26 27 28 29 30 31 32 33 34 35 36 37 38 39 40 41 42 43 44 45 46 47 48 49 50 51 52 53 54 55 56 57 58 59 60 61 62 63 64 65 66 67 68 69 70 71 72 73 74 75 76 77 78 79 80 81 82 83 84 85 86 87 88 89 90 91 92 93 94 95 96 97 98 99 100 101 102 103 104 105 106 107 108 109 110 111 112 113 114 115 116 117 118 119 120 121 122 123 124 125 126 127 128 129 130 131 132 133 134 135 136 137 138 139 140 141 142 143 144 145 146 147 148 149 150 151 152 153 154 155 156 157 158