Ergebnis 1 bis 4 von 4

Thema: Wicked City [Eng.Dub] DVD-Rip od. HD-Rip

Dieser Thread wurde noch nicht bewertet. Bewerte ihn doch, wenn er dir gefällt!
  1. #1
    Freigeschalteter Otaku Avatar von Mr.Websta
    Registriert seit
    Feb 2014
    Beiträge
    33
    Punkte
    3.011
    Errungenschaften:
    1000 ErfahrungspunkteHikikomoriTagger Amateur

    Wicked City [Eng.Dub] DVD-Rip od. HD-Rip

    Hallo Zusammen,

    bin auf der Suche nach dem Anime Wicked City als Eng.Dub. Gerne als DVD-Rip, da es den Film glaube ich nicht in HD gibt. Die Ger.Dub Version habe ich bereits und auch dazu den DL-Link hier im Foruk gefunden. Allerdings finde ich die deutshe Synchro unglaublich schlecht.

    Habe den Film damals als orig. VHS in engl. von Manga Video gekauft und die Engl. Synchro gefällt mir gut. Jap.Dub mit Ger.Subs ist leider nix für mich.

    Wäre super, wenn das jemand auftreiben könnte.

    Merci.

  2. #2
    United we Stand Avatar von 00Ryuji00
    Registriert seit
    Oct 2012
    Beiträge
    3.896
    Punkte
    99.519
    Errungenschaften:
    TomodachisGang LeaderHikikomoriTagger Amateur50000 Erfahrungspunkte

    AW: Wicked City [Eng.Dub] DVD-Rip od. HD-Rip

    Hier, such dir einen Release aus, ka welcher "besser" ist^^

    DVD | MKV | h264 | 704x480 | AC3 | Dual Audio | Softsubs (Various)
    Spoiler
    The video, the subtitles (both the .ass and the vobsubs), the Japanese dub track, and the Streamline dub track are all from the A-FanRips video that is already available on this tracker and many others. This release also includes the Manga UK dub that is rarely available.

    Japanese Dub: AC3 2.0
    Streamline Dub: AC3 5.1
    Manga UK Dub: AC3 2.0 - Courtesy of Disovolution



    DVD | MKV | h264 | 704x480 | AC3 | Dual Audio | Softsubs (Anime-FanRips)
    Spoiler
    Complete name : F:\Anime\Wicked City\[A-FanRips]_Wicked_City_[H264_AC3]_[5804EA66].mkv
    Format : Matroska
    File size : 2.04 GiB
    Duration : 1h 22mn
    Overall bit rate : 3 544 Kbps
    Encoded date : UTC 2009-01-06 13:25:22
    Writing application : mkvmerge v2.4.0 ('Fumbling Towards Ecstasy') built on Oct 11 2008 20:13:15
    Writing library : libebml v0.7.7 + libmatroska v0.8.1
    Cover : Yes

    Video
    ID : 1
    Format : AVC
    Format/Info : Advanced Video Codec
    Format profile : [email protected]
    Format settings, CABAC : Yes
    Format settings, ReFrames : 9 frames
    Muxing mode : Container [email protected]
    Codec ID : V_MPEG4/ISO/AVC
    Duration : 1h 22mn
    Bit rate : 2 706 Kbps
    Width : 704 pixels
    Height : 480 pixels
    Display aspect ratio : 4:3
    Original display aspect ratio : 1.467
    Frame rate : 23.976 fps
    Resolution : 8 bits
    Colorimetry : 4:2:0
    Scan type : Progressive
    Bits/(Pixel*Frame) : 0.334
    Stream size : 1.55 GiB (76%)
    Writing library : x264 core 65 r1046M 71d34b4
    Encoding settings : cabac=1 / ref=9 / deblock=1:0:0 / analyse=0x3:0x113 / me=umh / subme=7 / psy_rd=1.3:0.4 / mixed_ref=1 / me_range=16 / chroma_me=1 / trellis=2 / 8x8dct=1 / cqm=0 / deadzone=21,11 / chroma_qp_offset=-4 / threads=3 / nr=0 / decimate=0 / mbaff=0 / bframes=5 / b_pyramid=1 / b_adapt=1 / b_bias=0 / direct=0 / wpredb=1 / keyint=250 / keyint_min=25 / scenecut=40(pre) / rc=crf / crf=19.0 / qcomp=0.60 / qpmin=10 / qpmax=51 / qpstep=4 / ip_ratio=1.40 / pb_ratio=1.30 / aq=1:0.90
    Language : English

    Audio #1
    ID : 2
    Format : AC-3
    Format/Info : Audio Coding 3
    Codec ID : A_AC3
    Duration : 1h 22mn
    Bit rate mode : Constant
    Bit rate : 384 Kbps
    Channel(s) : 2 channels
    Channel positions : L R
    Sampling rate : 48.0 KHz
    Stream size : 226 MiB (11%)
    Title : AC3 2.0
    Language : Japanese

    Audio #2
    ID : 3
    Format : AC-3
    Format/Info : Audio Coding 3
    Codec ID : A_AC3
    Duration : 1h 22mn
    Bit rate mode : Constant
    Bit rate : 384 Kbps
    Channel(s) : 6 channels
    Channel positions : Front: L C R, Surround: L R, LFE
    Sampling rate : 48.0 KHz
    Stream size : 226 MiB (11%)
    Title : AC3 5.1
    Language : English

    Text #1
    ID : 4
    Format : ASS
    Codec ID : S_TEXT/ASS
    Codec ID/Info : Advanced Sub Station Alpha
    Title : Styled subs (ASS)
    Language : English

    Text #2
    ID : 5
    Format : VobSub
    Codec ID : S_VOBSUB
    Codec ID/Info : The same subtitle format used on DVDs
    Title : Imagesubs (VOBSUB)
    Language : Japanese
    !!!Alle Anliegen bezüglich Uploads werden nur mit direktem Threadlink zum Angebot bearbeitet!!!

    Re-Uploadanfragen nur per PN - Ihr könnt mir auch Listen schicken

    Re-Uploads erfolgen meist innerhalb 24h, kann aber auch bis zu 7 Tage dauern

    [Links sind nur für registrierte und aktivierte Nutzer sichtbar. Klicke hier um dich zu registrieren.] | [Links sind nur für registrierte und aktivierte Nutzer sichtbar. Klicke hier um dich zu registrieren.] | >[Links sind nur für registrierte und aktivierte Nutzer sichtbar. Klicke hier um dich zu registrieren.]<
    [Links sind nur für registrierte und aktivierte Nutzer sichtbar. Klicke hier um dich zu registrieren.]

  3. #3
    Freigeschalteter Otaku Avatar von Mr.Websta
    Registriert seit
    Feb 2014
    Beiträge
    33
    Punkte
    3.011
    Errungenschaften:
    1000 ErfahrungspunkteHikikomoriTagger Amateur

    AW: Wicked City [Eng.Dub] DVD-Rip od. HD-Rip

    Hmm... Das ist aber jetzt schon sehr komisch. Auf diesen Beitrag hatte ich am 16.02. bereits eine Antwort geschrieben und nu ist die weg??? Was noch komischer ist, dass die Anzahl meiner Beiträge unter 20 geschrumpft ist... Wie kann das denn bitte? Werden hier Beiträge von Usern gelöscht?

    Wie auch immer. Hier noch mal die Antwort auf die oben gestellte Frage:

    Ich würde diese Version bevorzugen:
    DVD | MKV | h264 | 704x480 | AC3 | Dual Audio | Softsubs (Anime-FanRips)

    Danke.
    ----
    Meine Lieblingsanimes: Ghost in the Shell, Akira, Appleseed, Animatrix, Heavy Metal FAKK2 , Dead Space, Renaissance, Paprika, Ninja Scroll, Wicked City, Monster City, Urotsukidoji, Vexille und alle Sachen von Studio Ghibli

  4. #4
    United we Stand Avatar von 00Ryuji00
    Registriert seit
    Oct 2012
    Beiträge
    3.896
    Punkte
    99.519
    Errungenschaften:
    TomodachisGang LeaderHikikomoriTagger Amateur50000 Erfahrungspunkte

    AW: Wicked City [Eng.Dub] DVD-Rip od. HD-Rip

    Hier bitte, hf^^

    [Links sind nur für registrierte und aktivierte Nutzer sichtbar. Klicke hier um dich zu registrieren.]
    !!!Alle Anliegen bezüglich Uploads werden nur mit direktem Threadlink zum Angebot bearbeitet!!!

    Re-Uploadanfragen nur per PN - Ihr könnt mir auch Listen schicken

    Re-Uploads erfolgen meist innerhalb 24h, kann aber auch bis zu 7 Tage dauern

    [Links sind nur für registrierte und aktivierte Nutzer sichtbar. Klicke hier um dich zu registrieren.] | [Links sind nur für registrierte und aktivierte Nutzer sichtbar. Klicke hier um dich zu registrieren.] | >[Links sind nur für registrierte und aktivierte Nutzer sichtbar. Klicke hier um dich zu registrieren.]<
    [Links sind nur für registrierte und aktivierte Nutzer sichtbar. Klicke hier um dich zu registrieren.]

  5. 1 Benutzer sagt Danke:

    Mr.Websta (23. February 2014)

Lesezeichen

Berechtigungen

  • Neue Themen erstellen: Nein
  • Themen beantworten: Nein
  • Anhänge hochladen: Nein
  • Beiträge bearbeiten: Nein
  •  

1 2 3 4 5 6 7 8 9 10 11 12 13 14 15 16 17 18 19 20 21 22 23 24 25 26 27 28 29 30 31 32 33 34 35 36 37 38 39 40 41 42 43 44 45 46 47 48 49 50 51 52 53 54 55 56 57 58 59 60 61 62 63 64 65 66 67 68 69 70 71 72 73 74 75 76 77 78 79 80 81 82 83 84 85 86 87 88 89 90 91 92 93 94 95 96 97 98 99 100 101 102 103 104 105 106 107 108 109 110 111 112 113 114 115 116 117 118 119 120 121 122 123 124 125 126 127 128 129 130 131 132 133 134 135 136 137 138 139 140 141 142 143 144 145 146 147 148 149 150 151 152 153 154 155 156 157 158