Ergebnis 1 bis 1 von 1

Thema: Kill la Kill [FLAC]

Dieser Thread wurde noch nicht bewertet. Bewerte ihn doch, wenn er dir gefällt!
  1. #1
    High Quality Anime Avatar von Uploading123
    Registriert seit
    Mar 2013
    Beiträge
    1.009
    Punkte
    44.135
    Errungenschaften:
    TomodachisTagger Amateur25000 ErfahrungspunkteHikikomoriKapitän

    Kill la Kill [FLAC]





    01 Before my body is dry 4:06
    02 goriLLA蛇L 4:15
    03 犬Kあ3L 4:33
    04 Blumenkranz 4:18
    05 AdラLib 3:23
    06 鬼龍G@キLL 4:37
    07 KILL7la切ル 4:45
    08 Suck your blood 3:39
    09 Kiっ9=KELL 4:51
    10 k1ll◎iLL 3:07
    11 Light your heart up 3:56
    12 昼裸lilL♪ 2:02
    13 斬LLLア生LL 4:25
    14 キ龍ha着LL 4:15
    15 I want to know 4:06
    16 寝LLna聴9 7:07
    17 Kiる厭KiLL 5:06
    18 Till I Die 4:41


    Format: FLAC
    Größe: 501 MB
    Enthalten im Archiv: CUE, Logdatei
    Genre: Soundtrack


    Spoiler

    Code:
    REM DATE 2013
    REM DISCID F2122B12
    REM COMMENT "ExactAudioCopy v1.0b3"
    PERFORMER "澤野 弘之"
    TITLE "KILL la KILL ORIGINAL SOUND TRACK"
    FILE "澤野 弘之 - KILL la KILL ORIGINAL SOUND TRACK.flac" WAVE
      TRACK 01 AUDIO
        TITLE "Before my body is dry"
        PERFORMER "澤野 弘之"
        INDEX 01 00:00:00
      TRACK 02 AUDIO
        TITLE "goriLLA蛇L"
        PERFORMER "澤野 弘之"
        INDEX 00 04:06:53
        INDEX 01 04:08:20
      TRACK 03 AUDIO
        TITLE "犬Kあ3L"
        PERFORMER "澤野 弘之"
        INDEX 01 08:24:08
      TRACK 04 AUDIO
        TITLE "Blumenkranz"
        PERFORMER "澤野 弘之"
        INDEX 01 12:57:51
      TRACK 05 AUDIO
        TITLE "AdラLib"
        PERFORMER "澤野 弘之"
        INDEX 01 17:16:35
      TRACK 06 AUDIO
        TITLE "鬼龍G@キLL"
        PERFORMER "澤野 弘之"
        INDEX 01 20:40:03
      TRACK 07 AUDIO
        TITLE "KILL7la切ル"
        PERFORMER "澤野 弘之"
        INDEX 01 25:17:46
      TRACK 08 AUDIO
        TITLE "Suck your blood"
        PERFORMER "澤野 弘之"
        INDEX 01 30:03:41
      TRACK 09 AUDIO
        TITLE "Kiっ9=KELL"
        PERFORMER "澤野 弘之"
        INDEX 01 33:43:29
      TRACK 10 AUDIO
        TITLE "k1ll◎iLL"
        PERFORMER "澤野 弘之"
        INDEX 01 38:34:58
      TRACK 11 AUDIO
        TITLE "Light your heart up"
        PERFORMER "澤野 弘之"
        INDEX 00 41:42:25
        INDEX 01 41:43:45
      TRACK 12 AUDIO
        TITLE "昼裸lilL♪"
        PERFORMER "澤野 弘之"
        INDEX 01 45:39:64
      TRACK 13 AUDIO
        TITLE "斬LLLア生LL"
        PERFORMER "澤野 弘之"
        INDEX 01 47:42:13
      TRACK 14 AUDIO
        TITLE "キ龍ha着LL"
        PERFORMER "澤野 弘之"
        INDEX 01 52:07:27
      TRACK 15 AUDIO
        TITLE "I want to know"
        PERFORMER "澤野 弘之"
        INDEX 00 56:22:46
        INDEX 01 56:25:36
      TRACK 16 AUDIO
        TITLE "寝LLna聴9"
        PERFORMER "澤野 弘之"
        INDEX 01 60:32:32
      TRACK 17 AUDIO
        TITLE "Kiる厭KiLL"
        PERFORMER "澤野 弘之"
        INDEX 00 67:40:07
        INDEX 01 67:41:72
      TRACK 18 AUDIO
        TITLE "Till I Die"
        PERFORMER "澤野 弘之"
        INDEX 00 72:48:27
        INDEX 01 72:50:33



    Spoiler

    Code:
    Exact Audio Copy V1.0 beta 3 from 29. August 2011
    
    EAC extraction logfile from 24. December 2013, 14:02
    
    澤野 弘之 / KILL la KILL ORIGINAL SOUND TRACK
    
    Used drive  : HL-DT-STBDDVDRW CH12LS28   Adapter: 3  ID: 1
    
    Read mode               : Secure
    Utilize accurate stream : Yes
    Defeat audio cache      : Yes
    Make use of C2 pointers : No
    
    Combined read/write offset correction       : 0
    Overread into Lead-In and Lead-Out          : No
    Fill up missing offset samples with silence : Yes
    Delete leading and trailing silent blocks   : No
    Null samples used in CRC calculations       : Yes
    Used interface                              : Native Win32 interface for Win NT & 2000
    
    Used output format              : User Defined Encoder
    Selected bitrate                : 768 kBit/s
    Quality                         : High
    Add ID3 tag                     : No
    Command line compressor         : C:\Program Files (x86)\Exact Audio Copy\FLAC\FLAC.EXE
    Additional command line options : -6 -V -T "ARTIST=%artist%" -T "TITLE=%title%" -T "ALBUM=%albumtitle%" -T "DATE=%year%" -T "TRACKNUMBER=%tracknr%" -T "GENRE=%genre%" -T "COMMENT=%comment%" -T "BAND=%albuminterpret%" -T "ALBUMARTIST=%albuminterpret%" -T "COMPOSER=%composer%" %haslyrics%--tag-from-file=LYRICS="%lyricsfile%"%haslyrics% -T "DISCNUMBER=%cdnumber%" -T "TOTALDISCS=%totalcds%" -T "TOTALTRACKS=%numtracks%" %hascover%--picture="%coverfile%"%hascover% %source% -o %dest%
    
    
    TOC of the extracted CD
    
         Track |   Start  |  Length  | Start sector | End sector 
        ---------------------------------------------------------
            1  |  0:00.00 |  4:08.20 |         0    |    18619   
            2  |  4:08.20 |  4:15.63 |     18620    |    37807   
            3  |  8:24.08 |  4:33.43 |     37808    |    58325   
            4  | 12:57.51 |  4:18.59 |     58326    |    77734   
            5  | 17:16.35 |  3:23.43 |     77735    |    93002   
            6  | 20:40.03 |  4:37.43 |     93003    |   113820   
            7  | 25:17.46 |  4:45.70 |    113821    |   135265   
            8  | 30:03.41 |  3:39.63 |    135266    |   151753   
            9  | 33:43.29 |  4:51.29 |    151754    |   173607   
           10  | 38:34.58 |  3:08.62 |    173608    |   187769   
           11  | 41:43.45 |  3:56.19 |    187770    |   205488   
           12  | 45:39.64 |  2:02.24 |    205489    |   214662   
           13  | 47:42.13 |  4:25.14 |    214663    |   234551   
           14  | 52:07.27 |  4:18.09 |    234552    |   253910   
           15  | 56:25.36 |  4:06.71 |    253911    |   272431   
           16  | 60:32.32 |  7:09.40 |    272432    |   304646   
           17  | 67:41.72 |  5:08.36 |    304647    |   327782   
           18  | 72:50.33 |  4:41.25 |    327783    |   348882   
    
    
    Range status and errors
    
    Selected range
    
         Filename G:\Music\Anime\KILL la KILL ORIGINAL SOUND TRACK\EAC\澤野 弘之 - KILL la KILL ORIGINAL SOUND TRACK.wav
    
         Peak level 99.4 %
         Extraction speed 8.3 X
         Range quality 100.0 %
         Test CRC 5D3EBCA4
         Copy CRC 5D3EBCA4
         Copy OK
    
    No errors occurred
    
    End of status report



    Geschützter Bereich - Bedanke dich beim Poster, um den Bereich sehen zu können
    Hier erfährst Du wie Du Dich bedanken kannst oder werde jetzt Premium Mitglied ab einer Spende von 5€ und erhalte sofortigen Zugriff auf den Downloadbereich!


    Geschützter Bereich - Bedanke dich beim Poster, um den Bereich sehen zu können
    Hier erfährst Du wie Du Dich bedanken kannst oder werde jetzt Premium Mitglied ab einer Spende von 5€ und erhalte sofortigen Zugriff auf den Downloadbereich!



    Spoiler

    Insanity

    Ihr seht nur Oboom als Mirror, obwohl Uploaded bzw. Share-Online angegeben ist?
    [Links sind nur für registrierte und aktivierte Nutzer sichtbar. Klicke hier um dich zu registrieren.]

  2. 14 Benutzer sagen Danke:

    babaschrimps (18. September 2015),Benebastler (10. February 2016),Clankinator (30. January 2015),duscha2925 (24. March 2016),GutiHaz_14 (4. August 2014),hausl (13. May 2015),Kazuma (3. November 2015),Magikarp (31. January 2015),MutationACE (19. February 2016),Nanatzusaya (24. January 2015),Regi (2. November 2016),Shi No Ryu (18. November 2015),xdricixd (8. November 2015),Xurush (25. March 2014)

Lesezeichen

Berechtigungen

  • Neue Themen erstellen: Nein
  • Themen beantworten: Nein
  • Anhänge hochladen: Nein
  • Beiträge bearbeiten: Nein
  •  

1 2 3 4 5 6 7 8 9 10 11 12 13 14 15 16 17 18 19 20 21 22 23 24 25 26 27 28 29 30 31 32 33 34 35 36 37 38 39 40 41 42 43 44 45 46 47 48 49 50 51 52 53 54 55 56 57 58 59 60 61 62 63 64 65 66 67 68 69 70 71 72 73 74 75 76 77 78 79 80 81 82 83 84 85 86 87 88 89 90 91 92 93 94 95 96 97 98 99 100 101 102 103 104 105 106 107 108 109 110 111 112 113 114 115 116 117 118 119 120 121 122 123 124 125 126 127 128 129 130 131 132 133 134 135 136 137 138 139 140 141 142 143 144 145 146 147 148 149 150 151 152 153 154 155 156 157 158