Ergebnis 1 bis 1 von 1

Thema: Accel World + OVA [Jap-Dub][Ger-Sub][720p][HDTV]-Morai

Dieser Thread wurde durchschnittlich mit 5 Sternen bewertet, wobei 1 Stern die schlechteste und 5 Sterne die beste Bewertung ist. Es haben insgesamt 1 Mitglieder eine Bewertung abgegeben.

  1. #1
    United we Stand Avatar von 00Ryuji00
    Registriert seit
    Oct 2012
    Beiträge
    3.896
    Punkte
    99.519
    Errungenschaften:
    TomodachisGang LeaderHikikomoriTagger Amateur50000 Erfahrungspunkte

    Accel World + OVA [Jap-Dub][Ger-Sub][720p][HDTV]-Morai


    Accel World
    アクセル・ワールド






    Kurzbeschreibung:
    Zitat Zitat von AniSearch.com
    Für Haruyuki*ist das reale Leben ein Horror. Mit seiner kleinen und stämmigen Figur ist er nicht gerade ein Frauenheld sondern ein beliebtes Opfer für die Schikanen der Schulraudis. Zuflucht findet er in der virtuellen Welt, wo er seiner Leidenschaft, dem Squash nachgehen kann. Nur Kuroyukihime*hat es geschafft ihn darin zu schlagen. Das hübsche und beliebte Mädchen macht Haruyuki*ein ganz besonderes Angebot, ein Computerprogramm namens Brain Burst, das es ihm ermöglicht im realen Leben die Zeit praktisch anzuhalten. Doch diese Fähigkeit ist nicht umsonst, alle Benutzer müssen regelmäßig gegeneinander antreten und gewinnen sonst sperrt sich das Programm für sie für immer.


    Spieldauer: 25min
    Genre: Action
    Nebengenres: Action, Drama, Komödie, Romanze, Scifi
    Jahr: 2012
    Sprache: Japanisch
    Untertitel: Deutsch
    Größe pro Folge: ~393 MiB
    Episodenanzahl: 24/24 + 2/2
    Format: MP4
    Auflösung: 720p (16:9)
    Videocodec: x264 (AVC)
    Audiocodec: AAC
    Releasegruppe: Morai-Subs
    Hoster: Share-Online, Uploaded


    MediaInfo
    Code:
    
    Format                                   : MPEG-4
    Format profile                           : Base Media
    Codec ID                                 : isom
    File size                                : 393 MiB
    Duration                                 : 23mn 40s
    Overall bit rate mode                    : Variable
    Overall bit rate                         : 2 323 Kbps
    Encoded date                             : UTC 2012-04-08 03:02:57
    Tagged date                              : UTC 2012-04-08 03:02:57
    
    Video
    ID                                       : 1
    Format                                   : AVC
    Format/Info                              : Advanced Video Codec
    Format profile                           : [email protected]
    Format settings, CABAC                   : Yes
    Format settings, ReFrames                : 9 frames
    Codec ID                                 : avc1
    Codec ID/Info                            : Advanced Video Coding
    Duration                                 : 23mn 40s
    Bit rate                                 : 2 101 Kbps
    Maximum bit rate                         : 13.7 Mbps
    Width                                    : 1 280 pixels
    Height                                   : 720 pixels
    Display aspect ratio                     : 16:9
    Frame rate mode                          : Constant
    Frame rate                               : 23.976 fps
    Color space                              : YUV
    Chroma subsampling                       : 4:2:0
    Bit depth                                : 8 bits
    Scan type                                : Progressive
    Bits/(Pixel*Frame)                       : 0.095
    Stream size                              : 356 MiB (90%)
    Title                                    : Video
    Writing library                          : x264 core 122 r2184 5c85e0a
    Encoding settings                        : cabac=1 / ref=9 / deblock=1:1:1 / analyse=0x3:0x133 / me=umh / subme=10 / psy=1 / psy_rd=0.60:0.15 / mixed_ref=1 / me_range=24 / chroma_me=1 / trellis=2 / 8x8dct=1 / cqm=0 / deadzone=21,11 / fast_pskip=1 / chroma_qp_offset=-3 / threads=9 / sliced_threads=0 / nr=0 / decimate=1 / interlaced=0 / bluray_compat=0 / constrained_intra=0 / bframes=9 / b_pyramid=2 / b_adapt=2 / b_bias=0 / direct=3 / weightb=1 / open_gop=0 / weightp=2 / keyint=250 / keyint_min=23 / scenecut=40 / intra_refresh=0 / rc_lookahead=60 / rc=crf / mbtree=0 / crf=18.0 / qcomp=0.60 / qpmin=0 / qpmax=69 / qpstep=4 / vbv_maxrate=25000 / vbv_bufsize=25000 / crf_max=0.0 / nal_hrd=none / ip_ratio=1.40 / pb_ratio=1.30 / aq=2:0.80
    Encoded date                             : UTC 2012-04-08 03:02:57
    Tagged date                              : UTC 2012-04-08 03:03:00
    
    Audio
    ID                                       : 2
    Format                                   : AAC
    Format/Info                              : Advanced Audio Codec
    Format profile                           : LC
    Codec ID                                 : 40
    Duration                                 : 23mn 40s
    Bit rate mode                            : Variable
    Bit rate                                 : 218 Kbps
    Maximum bit rate                         : 261 Kbps
    Channel(s)                               : 2 channels
    Channel positions                        : Front: L R
    Sampling rate                            : 48.0 KHz
    Compression mode                         : Lossy
    Stream size                              : 36.8 MiB (9%)
    Language                                 : Japanese
    Encoded date                             : UTC 2012-04-08 03:03:00
    Tagged date                              : UTC 2012-04-08 03:03:00
    
    




    Geschützter Bereich - Bedanke dich beim Poster, um den Bereich sehen zu können
    Hier erfährst Du wie Du Dich bedanken kannst oder werde jetzt Premium Mitglied ab einer Spende von 5€ und erhalte sofortigen Zugriff auf den Downloadbereich!

    [Links sind nur für registrierte und aktivierte Nutzer sichtbar. Klicke hier um dich zu registrieren.]
    !!!Alle Anliegen bezüglich Uploads werden nur mit direktem Threadlink zum Angebot bearbeitet!!!

    Re-Uploadanfragen nur per PN - Ihr könnt mir auch Listen schicken

    Re-Uploads erfolgen meist innerhalb 24h, kann aber auch bis zu 7 Tage dauern

    [Links sind nur für registrierte und aktivierte Nutzer sichtbar. Klicke hier um dich zu registrieren.] | [Links sind nur für registrierte und aktivierte Nutzer sichtbar. Klicke hier um dich zu registrieren.] | >[Links sind nur für registrierte und aktivierte Nutzer sichtbar. Klicke hier um dich zu registrieren.]<
    [Links sind nur für registrierte und aktivierte Nutzer sichtbar. Klicke hier um dich zu registrieren.]

  2. 29 Benutzer sagen Danke:

    Angel86 (18. November 2016),assa (20. May 2016),Asukaa (6. July 2016),beckerm (7. June 2016),BK-201 (16. November 2016),CoNfu5eD (19. July 2016),Demichi (4. May 2016),DetektivConanDE (23. May 2016),EpiX (21. August 2016),Hiruja (6. September 2016),iNatsu (12. May 2016),Kalchi (27. July 2016),midnighter (15. June 2016),MJMax (25. June 2016),Nanatzusaya (11. May 2016),onepiecefreak (12. July 2016),Rittai (13. August 2016),Sirenetix (28. June 2016),SnowCat (5. May 2016),Son Goku (22. July 2016),SONNYxq (4. May 2016),ter_Kapitalist (30. August 2016),test20 (26. October 2016),tigerhai (4. May 2016),Tschu23 (6. May 2016),undertaker0951 (23. July 2016),Vascar (23. September 2016),ZER0XIII (6. July 2016),zoe#449 (7. September 2016)

Lesezeichen

Berechtigungen

  • Neue Themen erstellen: Nein
  • Themen beantworten: Nein
  • Anhänge hochladen: Nein
  • Beiträge bearbeiten: Nein
  •  

1 2 3 4 5 6 7 8 9 10 11 12 13 14 15 16 17 18 19 20 21 22 23 24 25 26 27 28 29 30 31 32 33 34 35 36 37 38 39 40 41 42 43 44 45 46 47 48 49 50 51 52 53 54 55 56 57 58 59 60 61 62 63 64 65 66 67 68 69 70 71 72 73 74 75 76 77 78 79 80 81 82 83 84 85 86 87 88 89 90 91 92 93 94 95 96 97 98 99 100 101 102 103 104 105 106 107 108 109 110 111 112 113 114 115 116 117 118 119 120 121 122 123 124 125 126 127 128 129 130 131 132 133 134 135 136 137 138 139 140 141 142 143 144 145 146 147 148 149 150 151 152 153 154 155 156 157 158