Ergebnis 1 bis 1 von 1

Thema: Akatsuki no Yona: The Girl Standing in the Blush of Dawn [Jap-Dub][Ger-Sub][720p][WEBRip]

Dieser Thread wurde noch nicht bewertet. Bewerte ihn doch, wenn er dir gefällt!
  1. #1
    Uploader Avatar von Filbo11
    Registriert seit
    Jan 2015
    Beiträge
    931
    Punkte
    17.255
    Errungenschaften:
    TomodachisErste Gruppe1 Jahr registriertCreated Album picturesTagger First Class

    Akatsuki no Yona: The Girl Standing in the Blush of Dawn [Jap-Dub][Ger-Sub][720p][WEBRip]

    Akatsuki no Yona: The Girl Standing in the Blush of Dawn
    暁のヨナ -The girl standing in the blush of dawn-
    Yona of the Dawn




    Handlung

    Yona ist die einzige Prinzessin, des Königreichs Kouka. Wie es für Prinzessinen üblich ist, lebt sie ein recht glückliches Leben voller Luxus in ihrer Burg. Dort lebt sie auch zusammen mit ihrem Vater, dem König von Kouka, ihrem Diener Hak und ihrer großen Liebe Soo-won. Jedoch soll sich ihr derzeitiges Glück an ihrem sechszehnten Geburtstag komplett ändern. Als sie ihrem Vater von ihrer Beziehung mit Soo-won erzählen will, sucht sie sein Zimmer auf, doch Soo-won hat den König bereits getötet, weil er selbst den Thron besteigen und König werden will. Mit Haks Hilfe flieht Yona vor ihm und landet schließlich im Heimatdorf von Hak. Auf den Rat von Haks Großvater hin, suchen er und Yona, den Mönch Ik-soo auf, der ihnen von einer Legende von dem ersten König von Kouka und den vier Drachen erzählt. Yona und Hak entscheiden sich dazu, durch das Land zu reisen um diese vier legendären Drachen zu finden und das Königreich zu retten.


    Format: mp4
    Dauer: ca. 24 min
    Größe: ca. 150-200 MB
    Episodenanzahl: 24/24
    Sprache: Japanisch
    Untertitel: Deutsch
    Group: [Pure.Anime]
    Hoster: Uploaded.net & Share-Online.biz
    kein PW


    Screenshots & MediaInfo

    Spoiler
    [Links sind nur für registrierte und aktivierte Nutzer sichtbar. Klicke hier um dich zu registrieren.]
    [Links sind nur für registrierte und aktivierte Nutzer sichtbar. Klicke hier um dich zu registrieren.]


    Code:
    General
    
    Format                      : MPEG-4
    Format profile              : Base Media
    Codec ID                    : isom
    File size                   : 212 MiB
    Duration                    : 23mn 40s
    Overall bit rate mode       : Variable
    Overall bit rate            : 1 252 Kbps
    Encoded date                : UTC 2014-10-10 21:30:40
    Tagged date                 : UTC 2014-10-10 21:30:40
    
    Video
    ID                          : 1
    Format                      : AVC
    Format/Info                 : Advanced Video Codec
    Format profile              : [email protected]
    Format settings, CABAC      : Yes
    Format settings, ReFrames   : 4 frames
    Codec ID                    : avc1
    Codec ID/Info               : Advanced Video Coding
    Duration                    : 23mn 40s
    Bit rate                    : 1 095 Kbps
    Maximum bit rate            : 6 445 Kbps
    Width                       : 1 280 pixels
    Height                      : 720 pixels
    Display aspect ratio        : 16:9
    Frame rate mode             : Constant
    Frame rate                  : 23.976 fps
    Color space                 : YUV
    Chroma subsampling          : 4:2:0
    Bit depth                   : 8 bits
    Scan type                   : Progressive
    Bits/(Pixel*Frame)          : 0.050
    Stream size                 : 185 MiB (87%)
    Writing library             : x264 core 125 r2200 999b753
    Encoding settings           : cabac=1 / ref=3 / deblock=1:0:0 / analyse=0x3:0x113 / me=hex / subme=7 / psy=1 / psy_rd=1.00:0.00 / mixed_ref=1 / me_range=16 / chroma_me=1 / trellis=1 / 8x8dct=1 / cqm=0 / deadzone=21,11 / fast_pskip=1 / chroma_qp_offset=-2 / threads=12 / lookahead_threads=2 / sliced_threads=0 / nr=0 / decimate=1 / interlaced=0 / bluray_compat=0 / constrained_intra=0 / bframes=3 / b_pyramid=2 / b_adapt=1 / b_bias=0 / direct=1 / weightb=1 / open_gop=0 / weightp=2 / keyint=240 / keyint_min=23 / scenecut=40 / intra_refresh=0 / rc_lookahead=40 / rc=2pass / mbtree=1 / bitrate=1095 / ratetol=1.0 / qcomp=0.60 / qpmin=0 / qpmax=69 / qpstep=4 / cplxblur=20.0 / qblur=0.5 / ip_ratio=1.40 / aq=1:1.00
    Encoded date                : UTC 2014-10-10 21:30:40
    Tagged date                 : UTC 2014-10-10 21:30:42
    
    Audio
    ID                          : 2
    Format                      : AAC
    Format/Info                 : Advanced Audio Codec
    Format profile              : LC
    Codec ID                    : 40
    Duration                    : 23mn 40s
    Bit rate mode               : Variable
    Bit rate                    : 153 Kbps
    Maximum bit rate            : 195 Kbps
    Channel(s)                  : 2 channels
    Channel positions           : Front: L R
    Sampling rate               : 44.1 KHz
    Compression mode            : Lossy
    Stream size                 : 26.0 MiB (12%)
    Encoded date                : UTC 2014-10-10 21:30:42
    Tagged date                 : UTC 2014-10-10 21:30:42




    Download

    Geschützter Bereich - Bedanke dich beim Poster, um den Bereich sehen zu können
    Hier erfährst Du wie Du Dich bedanken kannst oder werde jetzt Premium Mitglied ab einer Spende von 5€ und erhalte sofortigen Zugriff auf den Downloadbereich!



    [Links sind nur für registrierte und aktivierte Nutzer sichtbar. Klicke hier um dich zu registrieren.]

    Ich wäre allen sehr dankbar, die mir gravierende Fehler in meinen Releases per PN melden

  2. 50 Benutzer sagen Danke:

    Ace360 (13. July 2015),Aluaran (31. March 2015),And9 (4. February 2016),andiB (21. April 2015),Avenger2201 (30. March 2015),Azuya (30. March 2015),Berserk27 (9. April 2015),BlackPhoenix (31. March 2015),Bloodyair (25. October 2015),Brumme (9. November 2016),Cú Chulainn (4. February 2016),Drachengott (30. March 2015),Haxz0r (27. June 2015),Hollow-Ichigo (27. January 2016),iCapuz (12. April 2015),JugoBetrugo (22. August 2015),Kaffeesahne340 (12. July 2016),Kalchi (7. May 2016),kashmael (16. September 2016),Kokujou (30. March 2015),Korihana (16. October 2016),krasserGaul (7. April 2015),krausi22 (2. April 2015),Kyl3 (5. April 2015),Lamperouge (13. February 2016),Ley0304 (26. July 2015),Max13493 (31. March 2015),Megamani (29. December 2015),Melijal (9. April 2015),midnighter (1. April 2015),Miriweth (20. December 2015),Modell_Thomas (28. April 2015),nitsuj1001 (24. January 2016),Razyy (5. April 2016),Rena_Chan (31. March 2015),Rheijaa (3. April 2015),Roy_Coleman (2. May 2015),Sakamoto (5. April 2015),Sandy7580 (26. February 2016),Silencio (3. October 2016),SnowCat (31. March 2015),SONNYxq (30. March 2015),Steinauge (12. April 2015),TeNkS (25. August 2015),thepromilekiler (30. March 2015),Tidus18 (22. December 2015),tokage (8. April 2015),Tschu23 (12. June 2015),Wölfchen (30. March 2015),YamiXGhost (25. January 2016)

Stichworte

Lesezeichen

Berechtigungen

  • Neue Themen erstellen: Nein
  • Themen beantworten: Nein
  • Anhänge hochladen: Nein
  • Beiträge bearbeiten: Nein
  •  

1 2 3 4 5 6 7 8 9 10 11 12 13 14 15 16 17 18 19 20 21 22 23 24 25 26 27 28 29 30 31 32 33 34 35 36 37 38 39 40 41 42 43 44 45 46 47 48 49 50 51 52 53 54 55 56 57 58 59 60 61 62 63 64 65 66 67 68 69 70 71 72 73 74 75 76 77 78 79 80 81 82 83 84 85 86 87 88 89 90 91 92 93 94 95 96 97 98 99 100 101 102 103 104 105 106 107 108 109 110 111 112 113 114 115 116 117 118 119 120 121 122 123 124 125 126 127 128 129 130 131 132 133 134 135 136 137 138 139 140 141 142 143 144 145 146 147 148 149 150 151 152 153 154 155 156 157 158