Ergebnis 1 bis 1 von 1

Thema: Aldnoah.Zero (S1+S2) [Jap-Dub][Ger-Sub][HDTV] - PA/NKDE

Dieser Thread wurde noch nicht bewertet. Bewerte ihn doch, wenn er dir gefällt!
  1. #1
    United we Stand Avatar von 00Ryuji00
    Registriert seit
    Oct 2012
    Beiträge
    3.902
    Punkte
    99.823
    Errungenschaften:
    TomodachisGang LeaderHikikomoriTagger Amateur50000 Erfahrungspunkte

    Aldnoah.Zero (S1+S2) [Jap-Dub][Ger-Sub][HDTV] - PA/NKDE

    Aldnoah.Zero
    アルドノア・ゼロ
    +Aldnoah.Zero (2015)
    Aldnoah.Zero Season 2
    Aldnoah.Zero 2
    Aldnoah.Zero Second Season, Aldnoah.Zero Second Cour



    Kurzbeschreibung:
    S1

    Die Entdeckung eines Hypergates außerirdischen Ursprungs auf dem Mond im Jahre 1972 ermöglichte es der Menschheit den Mars zu kolonisieren. Dort stieß man auf weitere außerirdische Technologie, doch wandten sich die Kolonialisten von ihrem Heimatplaneten Erde ab und gründeten das Vers Imperium. Gestützt auf die überlegene Technologie begann man einen Krieg gegen die Erde, der 1999 in der Zerstörung des Hypergates samt des ganzen Monds seinen Höhepunkt fand. Ein Waffenstillstand wurde ausgerufen, doch wuchsen die Spannungen durch die in der Folge vom Vers Imperium in der Erdumlaufbahn errichteten Raumstationen stetig an. Nun, 2014, liegt wieder Krieg in der Luft. Zurückgehalten vom seitens der Königsfamilie unterstützten Waffenstillstand, hat die Ungeduld der Adeligen des Vers Imperiums sich die Erde einzuverleiben ihren Höhepunkt erreicht, während sich die seit 15 Jahren in ständiger Bedrohung lebende Erdbevölkerung zunehmend militarisiert und bestmöglich auf einen Angriff vorbereitet hat. Es reicht nur noch ein Funke um die angespannte Lage eskalieren und den Kampf um die Erde wieder beginnen zu lassen.

    S2

    Seeking for revenge, Count Saazbaum, a Martian, attacked the Earth. Later on, the war between the Terrans and Martians ended with Earth's Terrans gaining the victory. However, nineteen months later, the battle between them continues. Martians still continues to invade the Earth and the Terrans to protect it.
    Spieldauer: ~ 24min
    Genre: Actiondrama
    Nebengenres: Action, Drama, Mecha, Scifi
    Jahr: 2014 - 2015
    Sprache: Japanisch
    Untertitel: Deutsch, Englisch
    Größe pro Folge: ~ 210MB
    Episodenanzahl: 12/12 + 12/2
    Format: MP4
    Auflösung: 720p (16:9)
    Videocodec: x264 (AVC)
    Audiocodec: AAC
    Releasegruppe: S1 Pure-Anime; S2 NKDE-Subs
    Hoster: Uploaded, Share-Online

    MediaInfo
    Pure-Anime
    Code:
    Format                                   : MPEG-4
    Format profile                           : Base Media
    Codec ID                                 : isom
    File size                                : 212 MiB
    Duration                                 : 23mn 40s
    Overall bit rate mode                    : Variable
    Overall bit rate                         : 1 252 Kbps
    Encoded date                             : UTC 2014-07-09 12:41:19
    Tagged date                              : UTC 2014-07-09 12:41:19
    
    Video
    ID                                       : 1
    Format                                   : AVC
    Format/Info                              : Advanced Video Codec
    Format profile                           : [email protected]
    Format settings, CABAC                   : Yes
    Format settings, ReFrames                : 4 frames
    Codec ID                                 : avc1
    Codec ID/Info                            : Advanced Video Coding
    Duration                                 : 23mn 40s
    Bit rate                                 : 1 096 Kbps
    Maximum bit rate                         : 13.5 Mbps
    Width                                    : 1 280 pixels
    Height                                   : 720 pixels
    Display aspect ratio                     : 16:9
    Frame rate mode                          : Constant
    Frame rate                               : 23.976 fps
    Color space                              : YUV
    Chroma subsampling                       : 4:2:0
    Bit depth                                : 8 bits
    Scan type                                : Progressive
    Bits/(Pixel*Frame)                       : 0.050
    Stream size                              : 186 MiB (88%)
    Writing library                          : x264 core 125 r2200 999b753
    Encoding settings                        : cabac=1 / ref=3 / deblock=1:0:0 / analyse=0x3:0x113 / me=hex / subme=7 / psy=1 / psy_rd=1.00:0.00 / mixed_ref=1 / me_range=16 / chroma_me=1 / trellis=1 / 8x8dct=1 / cqm=0 / deadzone=21,11 / fast_pskip=1 / chroma_qp_offset=-2 / threads=12 / lookahead_threads=2 / sliced_threads=0 / nr=0 / decimate=1 / interlaced=0 / bluray_compat=0 / constrained_intra=0 / bframes=3 / b_pyramid=2 / b_adapt=1 / b_bias=0 / direct=1 / weightb=1 / open_gop=0 / weightp=2 / keyint=240 / keyint_min=23 / scenecut=40 / intra_refresh=0 / rc_lookahead=40 / rc=2pass / mbtree=1 / bitrate=1096 / ratetol=1.0 / qcomp=0.60 / qpmin=0 / qpmax=69 / qpstep=4 / cplxblur=20.0 / qblur=0.5 / ip_ratio=1.40 / aq=1:1.00
    Encoded date                             : UTC 2014-07-09 12:41:19
    Tagged date                              : UTC 2014-07-09 12:41:22
    
    Audio
    ID                                       : 2
    Format                                   : AAC
    Format/Info                              : Advanced Audio Codec
    Format profile                           : LC
    Codec ID                                 : 40
    Duration                                 : 23mn 40s
    Bit rate mode                            : Variable
    Bit rate                                 : 152 Kbps
    Maximum bit rate                         : 195 Kbps
    Channel count                            : 2 channels
    Channel positions                        : Front: L R
    Sampling rate                            : 44.1 KHz
    Compression mode                         : Lossy
    Stream size                              : 25.8 MiB (12%)
    Encoded date                             : UTC 2014-07-09 12:41:21
    Tagged date                              : UTC 2014-07-09 12:41:22
    NKDE-Subs
    Code:
    Format                                   : MPEG-4
    Format profile                           : Base Media / Version 2
    Codec ID                                 : mp42
    File size                                : 226 MiB
    Duration                                 : 23mn 40s
    Overall bit rate mode                    : Variable
    Overall bit rate                         : 1 336 Kbps
    Encoded date                             : UTC 2015-01-13 20:33:04
    Tagged date                              : UTC 2015-01-13 21:44:12
    Writing application                      : HandBrake 0.9.9 2013052900
    
    Video
    ID                                       : 1
    Format                                   : AVC
    Format/Info                              : Advanced Video Codec
    Format profile                           : [email protected]
    Format settings, CABAC                   : Yes
    Format settings, ReFrames                : 4 frames
    Codec ID                                 : avc1
    Codec ID/Info                            : Advanced Video Coding
    Duration                                 : 23mn 40s
    Bit rate                                 : 1 172 Kbps
    Width                                    : 1 280 pixels
    Height                                   : 720 pixels
    Display aspect ratio                     : 16:9
    Frame rate mode                          : Variable
    Frame rate                               : 23.976 fps
    Minimum frame rate                       : 23.810 fps
    Maximum frame rate                       : 24.390 fps
    Color space                              : YUV
    Chroma subsampling                       : 4:2:0
    Bit depth                                : 8 bits
    Scan type                                : Progressive
    Bits/(Pixel*Frame)                       : 0.053
    Stream size                              : 198 MiB (88%)
    Writing library                          : x264 core 130 r2273 b3065e6
    Encoding settings                        : cabac=1 / ref=1 / deblock=1:0:0 / analyse=0x1:0x111 / me=hex / subme=2 / psy=1 / psy_rd=1.00:0.00 / mixed_ref=0 / me_range=16 / chroma_me=1 / trellis=0 / 8x8dct=0 / cqm=0 / deadzone=21,11 / fast_pskip=1 / chroma_qp_offset=0 / threads=3 / lookahead_threads=1 / sliced_threads=0 / nr=0 / decimate=1 / interlaced=0 / bluray_compat=0 / constrained_intra=0 / bframes=3 / b_pyramid=2 / b_adapt=1 / b_bias=0 / direct=1 / weightb=1 / open_gop=0 / weightp=1 / keyint=240 / keyint_min=24 / scenecut=40 / intra_refresh=0 / rc_lookahead=10 / rc=crf / mbtree=1 / crf=20.0 / qcomp=0.60 / qpmin=0 / qpmax=69 / qpstep=4 / vbv_maxrate=20000 / vbv_bufsize=25000 / crf_max=0.0 / nal_hrd=none / ip_ratio=1.40 / aq=1:1.00
    Encoded date                             : UTC 2015-01-13 20:33:06
    Tagged date                              : UTC 2015-01-13 21:44:12
    Color primaries                          : BT.709
    Transfer characteristics                 : BT.709
    Matrix coefficients                      : BT.709
    
    Audio
    ID                                       : 2
    Format                                   : AAC
    Format/Info                              : Advanced Audio Codec
    Format profile                           : LC
    Codec ID                                 : 40
    Duration                                 : 23mn 40s
    Bit rate mode                            : Variable
    Bit rate                                 : 160 Kbps
    Maximum bit rate                         : 332 Kbps
    Channel count                            : 2 channels
    Channel positions                        : Front: L R
    Sampling rate                            : 44.1 KHz
    Compression mode                         : Lossy
    Stream size                              : 27.1 MiB (12%)
    Encoded date                             : UTC 2015-01-13 20:33:06
    Tagged date                              : UTC 2015-01-13 21:44:10




    Geschützter Bereich - Bedanke dich beim Poster, um den Bereich sehen zu können
    Hier erfährst Du wie Du Dich bedanken kannst oder werde jetzt Premium Mitglied ab einer Spende von 5€ und erhalte sofortigen Zugriff auf den Downloadbereich!


    [Links sind nur für registrierte und aktivierte Nutzer sichtbar. Klicke hier um dich zu registrieren.]
    !!!Alle Anliegen bezüglich Uploads werden nur mit direktem Threadlink zum Angebot bearbeitet!!!

    Re-Uploadanfragen nur per PN - Ihr könnt mir auch Listen schicken

    Re-Uploads erfolgen meist innerhalb 24h, kann aber auch bis zu 7 Tage dauern

    [Links sind nur für registrierte und aktivierte Nutzer sichtbar. Klicke hier um dich zu registrieren.] | [Links sind nur für registrierte und aktivierte Nutzer sichtbar. Klicke hier um dich zu registrieren.] | >[Links sind nur für registrierte und aktivierte Nutzer sichtbar. Klicke hier um dich zu registrieren.]<
    [Links sind nur für registrierte und aktivierte Nutzer sichtbar. Klicke hier um dich zu registrieren.]

  2. 22 Benutzer sagen Danke:

    Aikanary (19. November 2016),Clumbaby (5. September 2016),eckschrank (Gestern),fab1 (7. September 2016),frankra (24. October 2016),herrwefer (11. September 2016),huntercity (8. September 2016),jesan6 (19. November 2016),Kouta-chii (20. October 2016),LordOfNoob (22. October 2016),MegaMacX (18. September 2016),midnighter (5. September 2016),Nijazi2000 (6. September 2016),Sceroc21 (3. October 2016),SnowCat (28. September 2016),SONNYxq (30. August 2016),Sora (30. August 2016),thepromilekiler (3. December 2016),tmcx (5. November 2016),Tschu23 (17. October 2016),undertaker0951 (30. August 2016),zoe#449 (4. September 2016)

Lesezeichen

Berechtigungen

  • Neue Themen erstellen: Nein
  • Themen beantworten: Nein
  • Anhänge hochladen: Nein
  • Beiträge bearbeiten: Nein
  •  

1 2 3 4 5 6 7 8 9 10 11 12 13 14 15 16 17 18 19 20 21 22 23 24 25 26 27 28 29 30 31 32 33 34 35 36 37 38 39 40 41 42 43 44 45 46 47 48 49 50 51 52 53 54 55 56 57 58 59 60 61 62 63 64 65 66 67 68 69 70 71 72 73 74 75 76 77 78 79 80 81 82 83 84 85 86 87 88 89 90 91 92 93 94 95 96 97 98 99 100 101 102 103 104 105 106 107 108 109 110 111 112 113 114 115 116 117 118 119 120 121 122 123 124 125 126 127 128 129 130 131 132 133 134 135 136 137 138 139 140 141 142 143 144 145 146 147 148 149 150 151 152 153 154 155 156 157 158