Ergebnis 1 bis 6 von 6

Thema: Bishoujo Senshi Sailor Moon Crystal [Jap-Dub][Ger-Sub][720p/1080p][BluRay] - MGS

Dieser Thread wurde noch nicht bewertet. Bewerte ihn doch, wenn er dir gefällt!
  1. #1
    United we Stand Avatar von 00Ryuji00
    Registriert seit
    Oct 2012
    Beiträge
    3.902
    Punkte
    99.823
    Errungenschaften:
    TomodachisGang LeaderHikikomoriTagger Amateur50000 Erfahrungspunkte

    Bishoujo Senshi Sailor Moon Crystal [Jap-Dub][Ger-Sub][720p/1080p][BluRay] - MGS

    Bishoujo Senshi Sailor Moon Crystal
    美少女戦士セーラームーン クリスタル
    Pretty Guardian Sailor Moon Crystal



    Kurzbeschreibung:
    Zitat Zitat von AniSeach.com
    Usagi Tsukino, eine leicht unbeholfenes, weinerliches Mädchen, im zweiten Jahr der Mittelschule, trifft eines Tages auf eine schwarze Katze mit einem Halbmondsymbol auf der Stirn und verwandelt sich in Sailor Moon, die Hüterin von Gerechtigkeit und Liebe. Schnell stellt sich heraus, dass dieses Zusammentreffen kein Zufall war und Usagi erhält – zusammen mit den anderen Wächterinnen – den Auftrag, den Illusion Silver Crystal zu finden und die Prinzessin Serenity zu beschützen.
    Währenddessen sendet auch Beryl, die Königin des dunklen Königreichs, ihre Lakaien aus, um den Illusion Silver Crystal zu finden. Ein Kampf um diesen unheimlich mächtigen Kristall scheint unvermeidlich.
    Spieldauer: ~ 25min
    Genre: Abenteuer
    Nebengenres: Abenteuer, Action, Drama, Magical Girl, Romanze, Weiblich
    Jahr: 2014
    Sprache: Japanisch
    Untertitel: Deutsch
    Größe pro Folge: ~ 250MB/500MB
    Episodenanzahl: 17/26
    Format: MP4
    Auflösung: 720p (16:9), 1080p (16:9)
    Videocodec: x264 (AVC)
    Audiocodec: AAC
    Releasegruppe: Magical Girls Subs
    Hoster: Uploaded, Share-Online

    MediaInfo
    720p
    Code:
    Format                                   : MPEG-4
    Format profile                           : Base Media
    Codec ID                                 : isom
    File size                                : 246 MiB
    Duration                                 : 24mn 32s
    Overall bit rate mode                    : Variable
    Overall bit rate                         : 1 399 Kbps
    Encoded date                             : UTC 2014-11-30 00:09:23
    Tagged date                              : UTC 2014-11-30 00:09:23
    
    Video
    ID                                       : 1
    Format                                   : AVC
    Format/Info                              : Advanced Video Codec
    Format profile                           : [email protected]
    Format settings, CABAC                   : Yes
    Format settings, ReFrames                : 4 frames
    Codec ID                                 : avc1
    Codec ID/Info                            : Advanced Video Coding
    Duration                                 : 24mn 32s
    Bit rate                                 : 1 267 Kbps
    Maximum bit rate                         : 8 915 Kbps
    Width                                    : 1 280 pixels
    Height                                   : 720 pixels
    Display aspect ratio                     : 16:9
    Frame rate mode                          : Constant
    Frame rate                               : 23.976 fps
    Color space                              : YUV
    Chroma subsampling                       : 4:2:0
    Bit depth                                : 8 bits
    Scan type                                : Progressive
    Bits/(Pixel*Frame)                       : 0.057
    Stream size                              : 222 MiB (91%)
    Writing library                          : x264 core 138 r2358 9e941d1
    Encoding settings                        : cabac=1 / ref=3 / deblock=0:0:0 / analyse=0x3:0x133 / me=umh / subme=6 / psy=1 / psy_rd=1.00:0.00 / mixed_ref=1 / me_range=16 / chroma_me=1 / trellis=1 / 8x8dct=1 / cqm=0 / deadzone=21,11 / fast_pskip=1 / chroma_qp_offset=-4 / threads=12 / lookahead_threads=2 / sliced_threads=0 / nr=0 / decimate=1 / interlaced=0 / bluray_compat=0 / constrained_intra=0 / bframes=3 / b_pyramid=2 / b_adapt=2 / b_bias=0 / direct=3 / weightb=1 / open_gop=0 / weightp=2 / keyint=240 / keyint_min=23 / scenecut=40 / intra_refresh=0 / rc_lookahead=40 / rc=2pass / mbtree=1 / bitrate=1267 / ratetol=1.0 / qcomp=0.60 / qpmin=10 / qpmax=51 / qpstep=4 / cplxblur=20.0 / qblur=0.5 / ip_ratio=1.40 / aq=1:0.00
    Encoded date                             : UTC 2014-11-29 22:26:57
    Tagged date                              : UTC 2014-11-30 00:09:26
    
    Audio
    ID                                       : 2
    Format                                   : AAC
    Format/Info                              : Advanced Audio Codec
    Format profile                           : HE-AAC / LC
    Codec ID                                 : 40
    Duration                                 : 24mn 32s
    Bit rate mode                            : Variable
    Bit rate                                 : 128 Kbps
    Maximum bit rate                         : 166 Kbps
    Channel count                            : 2 channels
    Channel positions                        : Front: L R
    Sampling rate                            : 48.0 KHz / 24.0 KHz
    Compression mode                         : Lossy
    Stream size                              : 22.5 MiB (9%)
    Encoded date                             : UTC 2014-11-10 20:57:18
    Tagged date                              : UTC 2014-11-30 00:09:26
    
    1080p
    Code:
    Format                                   : MPEG-4
    Format profile                           : Base Media
    Codec ID                                 : isom
    File size                                : 491 MiB
    Duration                                 : 24mn 32s
    Overall bit rate mode                    : Variable
    Overall bit rate                         : 2 796 Kbps
    Encoded date                             : UTC 2014-11-30 09:17:55
    Tagged date                              : UTC 2014-11-30 09:17:55
    
    Video
    ID                                       : 1
    Format                                   : AVC
    Format/Info                              : Advanced Video Codec
    Format profile                           : [email protected]
    Format settings, CABAC                   : Yes
    Format settings, ReFrames                : 4 frames
    Codec ID                                 : avc1
    Codec ID/Info                            : Advanced Video Coding
    Duration                                 : 24mn 32s
    Bit rate                                 : 2 599 Kbps
    Maximum bit rate                         : 17.6 Mbps
    Width                                    : 1 920 pixels
    Height                                   : 1 080 pixels
    Display aspect ratio                     : 16:9
    Frame rate mode                          : Constant
    Frame rate                               : 23.976 fps
    Color space                              : YUV
    Chroma subsampling                       : 4:2:0
    Bit depth                                : 8 bits
    Scan type                                : Progressive
    Bits/(Pixel*Frame)                       : 0.052
    Stream size                              : 456 MiB (93%)
    Writing library                          : x264 core 138 r2358 9e941d1
    Encoding settings                        : cabac=1 / ref=3 / deblock=0:0:0 / analyse=0x3:0x133 / me=umh / subme=6 / psy=1 / psy_rd=1.00:0.00 / mixed_ref=1 / me_range=16 / chroma_me=1 / trellis=1 / 8x8dct=1 / cqm=0 / deadzone=21,11 / fast_pskip=1 / chroma_qp_offset=-4 / threads=12 / lookahead_threads=2 / sliced_threads=0 / nr=0 / decimate=1 / interlaced=0 / bluray_compat=0 / constrained_intra=0 / bframes=3 / b_pyramid=2 / b_adapt=2 / b_bias=0 / direct=3 / weightb=1 / open_gop=0 / weightp=2 / keyint=240 / keyint_min=23 / scenecut=40 / intra_refresh=0 / rc_lookahead=40 / rc=2pass / mbtree=1 / bitrate=2599 / ratetol=1.0 / qcomp=0.60 / qpmin=10 / qpmax=51 / qpstep=4 / cplxblur=20.0 / qblur=0.5 / ip_ratio=1.40 / aq=1:0.00
    Encoded date                             : UTC 2014-11-30 00:09:07
    Tagged date                              : UTC 2014-11-30 09:18:17
    
    Audio
    ID                                       : 2
    Format                                   : AAC
    Format/Info                              : Advanced Audio Codec
    Format profile                           : LC
    Codec ID                                 : 40
    Duration                                 : 24mn 32s
    Bit rate mode                            : Variable
    Bit rate                                 : 192 Kbps
    Maximum bit rate                         : 241 Kbps
    Channel count                            : 2 channels
    Channel positions                        : Front: L R
    Sampling rate                            : 48.0 KHz
    Compression mode                         : Lossy
    Stream size                              : 33.7 MiB (7%)
    Encoded date                             : UTC 2014-11-29 17:20:50
    Tagged date                              : UTC 2014-11-30 09:18:17
    
    




    Geschützter Bereich - Bedanke dich beim Poster, um den Bereich sehen zu können
    Hier erfährst Du wie Du Dich bedanken kannst oder werde jetzt Premium Mitglied ab einer Spende von 5€ und erhalte sofortigen Zugriff auf den Downloadbereich!
    Geändert von 00Ryuji00 (16. October 2015 um 19:41 Uhr)
    !!!Alle Anliegen bezüglich Uploads werden nur mit direktem Threadlink zum Angebot bearbeitet!!!

    Re-Uploadanfragen nur per PN - Ihr könnt mir auch Listen schicken

    Re-Uploads erfolgen meist innerhalb 24h, kann aber auch bis zu 7 Tage dauern

    [Links sind nur für registrierte und aktivierte Nutzer sichtbar. Klicke hier um dich zu registrieren.] | [Links sind nur für registrierte und aktivierte Nutzer sichtbar. Klicke hier um dich zu registrieren.] | >[Links sind nur für registrierte und aktivierte Nutzer sichtbar. Klicke hier um dich zu registrieren.]<
    [Links sind nur für registrierte und aktivierte Nutzer sichtbar. Klicke hier um dich zu registrieren.]

  2. 52 Benutzer sagen Danke:

    Anzeigen

    Akio (28. November 2015),AKira_Hidaka (27. May 2016),Alaric (27. July 2015),Arekusu (24. September 2016),bloodyfloh (10. May 2015),Conopas (2. May 2015),Deedo320 (15. October 2016),Demon (10. May 2015),Devilsmasher (16. November 2015),dionys (28. August 2015),Elevv (26. September 2015),Flowbow (1. May 2016),fonomonochan (28. October 2015),Gatti1983 (27. June 2015),haltdiefresse (26. November 2015),Hirs_E_Fruit (17. August 2015),IkariGend (3. May 2015),Kalchi (21. July 2016),Kartox (10. May 2015),kei (6. July 2016),Kitefist (4. February 2016),kyrahiko_inactive (29. July 2015),Latyr (18. December 2015),leproph (14. February 2016),Majora (7. December 2015),MatrixEsl (20. September 2015),mccharly (19. June 2015),mclaurier (12. February 2016),midnighter (3. May 2015),mik_y (10. May 2016),nanaki88 (20. May 2016),NanaNo7 (22. November 2015),nemo (6. December 2015),Olize (26. June 2015),Pharander (4. May 2015),Piwi (26. July 2015),Ran-Mori (11. August 2015),rizzor666 (20. May 2015),Ronae (3. May 2015),schaluppe (19. October 2015),Smitecrawler (8. June 2016),SONNYxq (25. July 2015),Soraiah (29. December 2015),speik128 (10. January 2016),Tobi-idoT (14. October 2015),VatosLocos (30. September 2015),vaultssake (19. July 2015),Vice (26. July 2015),xxgamerxx596 (12. March 2016),Yagaman_inactive (2. August 2015),Yuki+ (15. October 2015),Zapzerap (11. March 2016)

  3. #2
    United we Stand Avatar von 00Ryuji00
    Registriert seit
    Oct 2012
    Beiträge
    3.902
    Punkte
    99.823
    Errungenschaften:
    TomodachisGang LeaderHikikomoriTagger Amateur50000 Erfahrungspunkte

    AW: Bishoujo Senshi Sailor Moon Crystal [Jap-Dub][Ger-Sub][720p/1080p][BluRay]

    Folge 7 ist online ~
    !!!Alle Anliegen bezüglich Uploads werden nur mit direktem Threadlink zum Angebot bearbeitet!!!

    Re-Uploadanfragen nur per PN - Ihr könnt mir auch Listen schicken

    Re-Uploads erfolgen meist innerhalb 24h, kann aber auch bis zu 7 Tage dauern

    [Links sind nur für registrierte und aktivierte Nutzer sichtbar. Klicke hier um dich zu registrieren.] | [Links sind nur für registrierte und aktivierte Nutzer sichtbar. Klicke hier um dich zu registrieren.] | >[Links sind nur für registrierte und aktivierte Nutzer sichtbar. Klicke hier um dich zu registrieren.]<
    [Links sind nur für registrierte und aktivierte Nutzer sichtbar. Klicke hier um dich zu registrieren.]

  4. #3
    United we Stand Avatar von 00Ryuji00
    Registriert seit
    Oct 2012
    Beiträge
    3.902
    Punkte
    99.823
    Errungenschaften:
    TomodachisGang LeaderHikikomoriTagger Amateur50000 Erfahrungspunkte

    AW: Bishoujo Senshi Sailor Moon Crystal [Jap-Dub][Ger-Sub][720p/1080p][BluRay]

    Folge 8-9 online ~
    !!!Alle Anliegen bezüglich Uploads werden nur mit direktem Threadlink zum Angebot bearbeitet!!!

    Re-Uploadanfragen nur per PN - Ihr könnt mir auch Listen schicken

    Re-Uploads erfolgen meist innerhalb 24h, kann aber auch bis zu 7 Tage dauern

    [Links sind nur für registrierte und aktivierte Nutzer sichtbar. Klicke hier um dich zu registrieren.] | [Links sind nur für registrierte und aktivierte Nutzer sichtbar. Klicke hier um dich zu registrieren.] | >[Links sind nur für registrierte und aktivierte Nutzer sichtbar. Klicke hier um dich zu registrieren.]<
    [Links sind nur für registrierte und aktivierte Nutzer sichtbar. Klicke hier um dich zu registrieren.]

  5. #4
    United we Stand Avatar von 00Ryuji00
    Registriert seit
    Oct 2012
    Beiträge
    3.902
    Punkte
    99.823
    Errungenschaften:
    TomodachisGang LeaderHikikomoriTagger Amateur50000 Erfahrungspunkte

    AW: Bishoujo Senshi Sailor Moon Crystal [Jap-Dub][Ger-Sub][720p/1080p][BluRay]

    Folge 10-14 online ~
    !!!Alle Anliegen bezüglich Uploads werden nur mit direktem Threadlink zum Angebot bearbeitet!!!

    Re-Uploadanfragen nur per PN - Ihr könnt mir auch Listen schicken

    Re-Uploads erfolgen meist innerhalb 24h, kann aber auch bis zu 7 Tage dauern

    [Links sind nur für registrierte und aktivierte Nutzer sichtbar. Klicke hier um dich zu registrieren.] | [Links sind nur für registrierte und aktivierte Nutzer sichtbar. Klicke hier um dich zu registrieren.] | >[Links sind nur für registrierte und aktivierte Nutzer sichtbar. Klicke hier um dich zu registrieren.]<
    [Links sind nur für registrierte und aktivierte Nutzer sichtbar. Klicke hier um dich zu registrieren.]

  6. #5
    United we Stand Avatar von 00Ryuji00
    Registriert seit
    Oct 2012
    Beiträge
    3.902
    Punkte
    99.823
    Errungenschaften:
    TomodachisGang LeaderHikikomoriTagger Amateur50000 Erfahrungspunkte

    AW: Bishoujo Senshi Sailor Moon Crystal [Jap-Dub][Ger-Sub][720p/1080p][BluRay] - MGS

    Folge 15 online ~
    !!!Alle Anliegen bezüglich Uploads werden nur mit direktem Threadlink zum Angebot bearbeitet!!!

    Re-Uploadanfragen nur per PN - Ihr könnt mir auch Listen schicken

    Re-Uploads erfolgen meist innerhalb 24h, kann aber auch bis zu 7 Tage dauern

    [Links sind nur für registrierte und aktivierte Nutzer sichtbar. Klicke hier um dich zu registrieren.] | [Links sind nur für registrierte und aktivierte Nutzer sichtbar. Klicke hier um dich zu registrieren.] | >[Links sind nur für registrierte und aktivierte Nutzer sichtbar. Klicke hier um dich zu registrieren.]<
    [Links sind nur für registrierte und aktivierte Nutzer sichtbar. Klicke hier um dich zu registrieren.]

  7. #6
    United we Stand Avatar von 00Ryuji00
    Registriert seit
    Oct 2012
    Beiträge
    3.902
    Punkte
    99.823
    Errungenschaften:
    TomodachisGang LeaderHikikomoriTagger Amateur50000 Erfahrungspunkte

    AW: Bishoujo Senshi Sailor Moon Crystal [Jap-Dub][Ger-Sub][720p/1080p][BluRay] - MGS

    Folge 16-17 online ~
    !!!Alle Anliegen bezüglich Uploads werden nur mit direktem Threadlink zum Angebot bearbeitet!!!

    Re-Uploadanfragen nur per PN - Ihr könnt mir auch Listen schicken

    Re-Uploads erfolgen meist innerhalb 24h, kann aber auch bis zu 7 Tage dauern

    [Links sind nur für registrierte und aktivierte Nutzer sichtbar. Klicke hier um dich zu registrieren.] | [Links sind nur für registrierte und aktivierte Nutzer sichtbar. Klicke hier um dich zu registrieren.] | >[Links sind nur für registrierte und aktivierte Nutzer sichtbar. Klicke hier um dich zu registrieren.]<
    [Links sind nur für registrierte und aktivierte Nutzer sichtbar. Klicke hier um dich zu registrieren.]

  8. 1 Benutzer sagt Danke:

    leproph (16. February 2016)

Lesezeichen

Berechtigungen

  • Neue Themen erstellen: Nein
  • Themen beantworten: Nein
  • Anhänge hochladen: Nein
  • Beiträge bearbeiten: Nein
  •  

1 2 3 4 5 6 7 8 9 10 11 12 13 14 15 16 17 18 19 20 21 22 23 24 25 26 27 28 29 30 31 32 33 34 35 36 37 38 39 40 41 42 43 44 45 46 47 48 49 50 51 52 53 54 55 56 57 58 59 60 61 62 63 64 65 66 67 68 69 70 71 72 73 74 75 76 77 78 79 80 81 82 83 84 85 86 87 88 89 90 91 92 93 94 95 96 97 98 99 100 101 102 103 104 105 106 107 108 109 110 111 112 113 114 115 116 117 118 119 120 121 122 123 124 125 126 127 128 129 130 131 132 133 134 135 136 137 138 139 140 141 142 143 144 145 146 147 148 149 150 151 152 153 154 155 156 157 158