Ergebnis 1 bis 1 von 1

Thema: Boku Dake ga Inai Machi [Jap-Dub][Ger-Sub][720p][WebRip]

Dieser Thread wurde noch nicht bewertet. Bewerte ihn doch, wenn er dir gefällt!
  1. #1
    Kleiner Experte Avatar von ShadowTX
    Registriert seit
    Sep 2014
    Beiträge
    109
    Punkte
    3.703
    Errungenschaften:
    1000 ErfahrungspunkteHikikomori

    Boku Dake ga Inai Machi [Jap-Dub][Ger-Sub][720p][WebRip]



    Erased: Die Stadt, in der es mich nicht gibt
    僕だけがいない街
    Erased


    Videodetails:
    Publisher...............: Peppermint
    Jahr:...................: 2016
    Genre...................: Drama, Science-Fiction, Thriller
    Episodenanzahl..........: 12/12
    Container...............: MP4
    Codec...................: AVC
    Format..................: 720p
    Spieldauer..............: 24 Minuten
    Größe pro Folge.........: 300 MB
    Encodet by..............: Momokors
    Hostet by...............: Uploaded,Share-Online

    Audiodetails:
    Sprache............: Japanisch
    Untertitel.........: Deutsch
    Audioformat........: AAC 2.0

    Kurzbeschreibung:
    Zitat Zitat von AniSearch.com
    Satoru Fujinuma ist ein Mangaka, der nicht leicht an Geld kommt. Zudem hat er eine Gabe: Er kann in der Zeit zurückreisen, sobald ein Unglück geschieht und damit Todesfälle verhindern. Als seine Mutter auf grausame Weise umgebracht wird, geht er zurück, um diesen bisher ungelösten Fall zu lösen. Doch er findet sich in seiner alten Grundschule wieder, genau vor der Entführung seiner ehemaligen Mitschülerin Kayo.
    MediaInfo
    Code:
    
    
    General
    Complete name               : Erased.Episode.01.German.Subbed.MP4
    Format                      : MPEG-4
    Format profile              : Base Media / Version 2
    Codec ID                    : mp42 (mp42/mp41/isom/avc1)
    File size                   : 248 MiB
    Duration                    : 23mn 1s
    Overall bit rate mode       : Variable
    Overall bit rate            : 1 507 Kbps
    Encoded date                : UTC 2016-01-07 19:15:34
    Tagged date                 : UTC 2016-01-07 19:15:34
    
    Video
    ID                          : 1
    Format                      : AVC
    Format/Info                 : Advanced Video Codec
    Format profile              : [email protected]
    Format settings, CABAC      : Yes
    Format settings, ReFrames   : 5 frames
    Codec ID                    : avc1
    Codec ID/Info               : Advanced Video Coding
    Duration                    : 23mn 1s
    Bit rate                    : 1 343 Kbps
    Width                       : 1 280 pixels
    Height                      : 720 pixels
    Display aspect ratio        : 16:9
    Frame rate mode             : Constant
    Frame rate                  : 23.976 (24000/1001) fps
    Color space                 : YUV
    Chroma subsampling          : 4:2:0
    Bit depth                   : 8 bits
    Scan type                   : Progressive
    Bits/(Pixel*Frame)          : 0.061
    Stream size                 : 221 MiB (89%)
    Writing library             : x264 core 148 r11 7599210
    Encoding settings           : cabac=1 / ref=5 / deblock=1:0:0 / analyse=0x3:0x113 / me=umh / subme=8 / psy=1 / psy_rd=1.00:0.00 / mixed_ref=1 / me_range=16 / chroma_me=1 / trellis=1 / 8x8dct=1 / cqm=0 / deadzone=21,11 / fast_pskip=1 / chroma_qp_offset=-2 / threads=22 / lookahead_threads=3 / sliced_threads=0 / nr=0 / decimate=1 / interlaced=0 / bluray_compat=0 / stitchable=1 / constrained_intra=0 / bframes=3 / b_pyramid=2 / b_adapt=2 / b_bias=0 / direct=3 / weightb=1 / open_gop=0 / weightp=2 / keyint=infinite / keyint_min=23 / scenecut=40 / intra_refresh=0 / rc_lookahead=50 / rc=crf / mbtree=1 / crf=20.0 / qcomp=0.60 / qpmin=5 / qpmax=69 / qpstep=4 / vbv_maxrate=2750 / vbv_bufsize=7500 / crf_max=0.0 / nal_hrd=none / filler=0 / ip_ratio=1.40 / aq=1:1.00
    Encoded date                : UTC 2016-01-07 19:15:34
    Tagged date                 : UTC 2016-01-07 19:15:34
    Color range                 : Limited
    Color primaries             : BT.709
    Transfer characteristics    : BT.709
    Matrix coefficients         : BT.709
    
    Audio
    ID                          : 2
    Format                      : AAC
    Format/Info                 : Advanced Audio Codec
    Format profile              : LC
    Codec ID                    : 40
    Duration                    : 23mn 1s
    Bit rate mode               : Variable
    Bit rate                    : 160 Kbps
    Channel(s)                  : 2 channels
    Channel positions           : Front: L R
    Sampling rate               : 48.0 KHz
    Frame rate                  : 46.875 fps (1024 spf)
    Compression mode            : Lossy
    Stream size                 : 26.3 MiB (11%)
    Encoded date                : UTC 2016-01-07 19:15:34
    Tagged date                 : UTC 2016-01-07 19:15:34
    ]
    
    





    Geschützter Bereich - Bedanke dich beim Poster, um den Bereich sehen zu können
    Hier erfährst Du wie Du Dich bedanken kannst oder werde jetzt Premium Mitglied ab einer Spende von 5€ und erhalte sofortigen Zugriff auf den Downloadbereich!
    Geändert von ShadowTX (6. July 2016 um 17:52 Uhr)

  2. 37 Benutzer sagen Danke:

    Akio (23. May 2016),Angelous (7. June 2016),Animewolf (29. May 2016),Auizi (4. May 2016),Belbo (31. May 2016),Blackfl4g (16. July 2016),Chrissi89 (21. September 2016),Cloud9019 (4. May 2016),DommiNanz (11. May 2016),EnvoyXd (20. October 2016),Flowbow (5. November 2016),Frekuensi (18. July 2016),Gelex (19. June 2016),Haburo (25. August 2016),heasdwlocker (12. October 2016),Hi im Shini (29. July 2016),inst4gib (25. August 2016),Kalchi (27. July 2016),King-Loretta (23. May 2016),LawMugen (8. May 2016),markusdamon5 (17. September 2016),midnighter (15. June 2016),Miku_Ushita (23. November 2016),Oidem (13. July 2016),patuze (11. June 2016),Poocky (21. July 2016),RaienryuuRgr (8. May 2016),redithebat (29. May 2016),rice4ever (17. September 2016),sangheilie (10. August 2016),Skully_88 (5. May 2016),superkirby (21. May 2016),SynDic4Te (31. May 2016),SystemS (11. September 2016),Tekk (5. May 2016),thegroudge (14. May 2016),tigerhai (5. May 2016)

Lesezeichen

Berechtigungen

  • Neue Themen erstellen: Nein
  • Themen beantworten: Nein
  • Anhänge hochladen: Nein
  • Beiträge bearbeiten: Nein
  •  

1 2 3 4 5 6 7 8 9 10 11 12 13 14 15 16 17 18 19 20 21 22 23 24 25 26 27 28 29 30 31 32 33 34 35 36 37 38 39 40 41 42 43 44 45 46 47 48 49 50 51 52 53 54 55 56 57 58 59 60 61 62 63 64 65 66 67 68 69 70 71 72 73 74 75 76 77 78 79 80 81 82 83 84 85 86 87 88 89 90 91 92 93 94 95 96 97 98 99 100 101 102 103 104 105 106 107 108 109 110 111 112 113 114 115 116 117 118 119 120 121 122 123 124 125 126 127 128 129 130 131 132 133 134 135 136 137 138 139 140 141 142 143 144 145 146 147 148 149 150 151 152 153 154 155 156 157 158