Ergebnis 1 bis 1 von 1

Thema: Boku no Hero Academia [Jap-Dub][Ger-Sub][720p][1080p][WebRip] - H0K

Dieser Thread wurde durchschnittlich mit 5 Sternen bewertet, wobei 1 Stern die schlechteste und 5 Sterne die beste Bewertung ist. Es haben insgesamt 1 Mitglieder eine Bewertung abgegeben.

  1. #1
    Uploader Avatar von Masaru
    Registriert seit
    Jan 2016
    Ort
    neumünster
    Beiträge
    453
    Punkte
    11.993
    Errungenschaften:
    10000 ErfahrungspunkteSenpai

    Boku no Hero Academia [Jap-Dub][Ger-Sub][720p][1080p][WebRip] - H0K


    Boku no Hero Academia
    僕のヒーローアカデミア
    My Hero Academia






    Kurzbeschreibung:
    Zitat Zitat von AniSearch.com
    Izuku Midoriya lebt in einer Welt, in der die Menschheit Superkräfte namens Quirks*entwickelt hat. Doch zu seinem Pech besitzen "nur" ungefähr 80% der Menschen solch eine Superkraft und Izuku gehört zu den restlichen 20%, die ohne Quirks geboren wurden. Fest entschlossen,*seinen Traum, ein Held zu sein, nicht einfach so aufzugeben,*bewirbt er sich Hals über Kopf an der Hero Academy – eine der höchst angesehenen Heldenschulen aller Zeiten. Diese Schule*trainiert jüngere Menschen zu Superhelden, um die Ganoven, die sich auf der Welt herumtreiben, in die Flucht zu schlagen. Glücklicherweise*sticht Izuku dann*dem größten Helden der Geschichte ins Auge: All-Might!*Dieser möchte ihn von nun an trainieren, damit er an seiner Wunsch-Schule angenommen wird …


    Spieldauer: 24min
    Genre: Actionkomödie
    Nebengenres: Abenteuer, Action, Fantasy, Fighting-Shounen, Komödie
    Jahr: 2016
    Sprache: Japanisch
    Untertitel: Deutsch
    Größe pro Folge: ~525 MiB ~1.50 GiB
    Episodenanzahl: 13/13
    Format: MP4
    Auflösung: 720p (16:9), 1080p (16:9)
    Videocodec: x264 (AVC)
    Audiocodec: AAC
    Releasegruppe: H0K
    Hoster: Uploaded, Share-Online


    MediaInfo
    720p
    Code:
    
    Format                                   : MPEG-4
    Format profile                           : Base Media
    Codec ID                                 : isom
    File size                                : 525 MiB
    Duration                                 : 24mn 30s
    Overall bit rate mode                    : Variable
    Overall bit rate                         : 2 995 Kbps
    Writing application                      : Lavf55.49.100
    
    Video
    ID                                       : 1
    Format                                   : AVC
    Format/Info                              : Advanced Video Codec
    Format profile                           : [email protected]
    Format settings, CABAC                   : Yes
    Format settings, ReFrames                : 9 frames
    Codec ID                                 : avc1
    Codec ID/Info                            : Advanced Video Coding
    Duration                                 : 24mn 30s
    Bit rate                                 : 2 733 Kbps
    Width                                    : 1 280 pixels
    Height                                   : 720 pixels
    Display aspect ratio                     : 16:9
    Frame rate mode                          : Variable
    Frame rate                               : 23.976 fps
    Minimum frame rate                       : 23.974 fps
    Maximum frame rate                       : 23.981 fps
    Color space                              : YUV
    Chroma subsampling                       : 4:2:0
    Bit depth                                : 8 bits
    Scan type                                : Progressive
    Bits/(Pixel*Frame)                       : 0.124
    Stream size                              : 479 MiB (91%)
    Writing library                          : x264 core 148 r2665 a01e339
    Encoding settings                        : cabac=1 / ref=9 / deblock=1:1:0 / analyse=0x3:0x133 / me=umh / subme=10 / psy=1 / psy_rd=0.80:0.20 / mixed_ref=1 / me_range=24 / chroma_me=1 / trellis=2 / 8x8dct=1 / cqm=0 / deadzone=21,11 / fast_pskip=1 / chroma_qp_offset=-3 / threads=18 / lookahead_threads=4 / sliced_threads=0 / nr=0 / decimate=0 / interlaced=0 / bluray_compat=0 / constrained_intra=0 / bframes=16 / b_pyramid=2 / b_adapt=2 / b_bias=0 / direct=3 / weightb=1 / open_gop=0 / weightp=2 / keyint=96 / keyint_min=9 / scenecut=0 / intra_refresh=0 / rc_lookahead=80 / rc=crf / mbtree=1 / crf=17.0 / qcomp=0.60 / qpmin=0 / qpmax=69 / qpstep=4 / vbv_maxrate=4096 / vbv_bufsize=10240 / crf_max=0.0 / nal_hrd=none / filler=0 / ip_ratio=1.40 / aq=3:1.20
    
    Audio
    ID                                       : 2
    Format                                   : AAC
    Format/Info                              : Advanced Audio Codec
    Format profile                           : LC
    Codec ID                                 : 40
    Duration                                 : 24mn 30s
    Bit rate mode                            : Variable
    Bit rate                                 : 256 Kbps
    Maximum bit rate                         : 261 Kbps
    Channel(s)                               : 2 channels
    Channel positions                        : Front: L R
    Sampling rate                            : 48.0 KHz
    Compression mode                         : Lossy
    Stream size                              : 44.9 MiB (9%)
    
    


    1080p
    Code:
    
    Format                                   : MPEG-4
    Format profile                           : Base Media
    Codec ID                                 : isom
    File size                                : 1.50 GiB
    Duration                                 : 24mn 30s
    Overall bit rate mode                    : Variable
    Overall bit rate                         : 8 790 Kbps
    Writing application                      : Lavf55.49.100
    
    Video
    ID                                       : 1
    Format                                   : AVC
    Format/Info                              : Advanced Video Codec
    Format profile                           : [email protected]
    Format settings, CABAC                   : Yes
    Format settings, ReFrames                : 12 frames
    Codec ID                                 : avc1
    Codec ID/Info                            : Advanced Video Coding
    Duration                                 : 24mn 30s
    Bit rate                                 : 8 528 Kbps
    Width                                    : 1 920 pixels
    Height                                   : 1 080 pixels
    Display aspect ratio                     : 16:9
    Frame rate mode                          : Variable
    Frame rate                               : 23.976 fps
    Minimum frame rate                       : 23.974 fps
    Maximum frame rate                       : 23.981 fps
    Color space                              : YUV
    Chroma subsampling                       : 4:2:0
    Bit depth                                : 8 bits
    Scan type                                : Progressive
    Bits/(Pixel*Frame)                       : 0.172
    Stream size                              : 1.46 GiB (97%)
    Writing library                          : x264 core 148 r2665 a01e339
    Encoding settings                        : cabac=1 / ref=12 / deblock=1:0:-1 / analyse=0x3:0x133 / me=umh / subme=10 / psy=1 / psy_rd=0.80:0.20 / mixed_ref=1 / me_range=24 / chroma_me=1 / trellis=2 / 8x8dct=1 / cqm=0 / deadzone=21,11 / fast_pskip=1 / chroma_qp_offset=-3 / threads=18 / lookahead_threads=4 / sliced_threads=0 / nr=0 / decimate=0 / interlaced=0 / bluray_compat=0 / constrained_intra=0 / bframes=16 / b_pyramid=2 / b_adapt=2 / b_bias=0 / direct=3 / weightb=1 / open_gop=0 / weightp=2 / keyint=96 / keyint_min=9 / scenecut=0 / intra_refresh=0 / rc_lookahead=80 / rc=crf / mbtree=1 / crf=15.0 / qcomp=0.60 / qpmin=0 / qpmax=69 / qpstep=4 / vbv_maxrate=13312 / vbv_bufsize=30720 / crf_max=0.0 / nal_hrd=none / filler=0 / ip_ratio=1.40 / aq=3:1.20
    
    Audio
    ID                                       : 2
    Format                                   : AAC
    Format/Info                              : Advanced Audio Codec
    Format profile                           : LC
    Codec ID                                 : 40
    Duration                                 : 24mn 30s
    Bit rate mode                            : Variable
    Bit rate                                 : 256 Kbps
    Maximum bit rate                         : 261 Kbps
    Channel(s)                               : 2 channels
    Channel positions                        : Front: L R
    Sampling rate                            : 48.0 KHz
    Compression mode                         : Lossy
    Stream size                              : 44.9 MiB (3%)
    
    






    Geschützter Bereich - Bedanke dich beim Poster, um den Bereich sehen zu können
    Hier erfährst Du wie Du Dich bedanken kannst oder werde jetzt Premium Mitglied ab einer Spende von 5€ und erhalte sofortigen Zugriff auf den Downloadbereich!

    [Links sind nur für registrierte und aktivierte Nutzer sichtbar. Klicke hier um dich zu registrieren.]
    Inaktiver Uploader!

    Alle Re-Upload-Anfragen öffentlich im [Links sind nur für registrierte und aktivierte Nutzer sichtbar. Klicke hier um dich zu registrieren.] posten!

  2. 61 Benutzer sagen Danke:

    Anzeigen

    alexrr7 (23. July 2016),anakinxXx (10. July 2016),Androkai (9. July 2016),arginator (19. July 2016),Bloodyair (8. July 2016),Boff (22. October 2016),bohne (9. July 2016),C3M-O- (10. July 2016),chopper23 (9. July 2016),Cooky1988 (9. July 2016),Ðāɱøȵ™ (12. July 2016),dadoc91 (10. July 2016),Dark_Supway (16. August 2016),DarthToast (9. July 2016),dr_fist (11. July 2016),Feed Me x33 (2. August 2016),fichtlwichtl (14. November 2016),Flowbow (10. July 2016),GammaWar (9. July 2016),Goki.Grokus (9. July 2016),gunnar1 (3. October 2016),GutiHaz_14 (12. July 2016),Hiro (9. July 2016),IN4T0R (11. July 2016),Isildor (10. July 2016),Joshi120 (12. July 2016),KainIV (9. July 2016),Kalchi (30. July 2016),Katsura (20. July 2016),Kazukyy (9. July 2016),kazumamon (11. July 2016),Kosuda-kun (2. August 2016),Kristero (9. July 2016),Leviathan42 (23. July 2016),MegaMacX (11. July 2016),Megamani (10. July 2016),midnighter (30. July 2016),Morbi2k15 (9. July 2016),msemi99 (2. September 2016),MugiwaraChaos (12. July 2016),Physignatily (18. July 2016),priesta (17. September 2016),Ravyn2805 (9. July 2016),realmadridcf (11. July 2016),Rhonos (7. September 2016),RuffyD (12. July 2016),S1M0N93 (1. October 2016),SchwarzKlaue (6. September 2016),Seki (12. July 2016),Shugyosha (12. July 2016),Skully_88 (4. August 2016),SnowCat (10. July 2016),SONNYxq (10. July 2016),Spotix (12. July 2016),thereverend (9. July 2016),torusso12 (9. July 2016),treffgarnix (7. August 2016),Valetinese (9. July 2016),Wölfchen (6. September 2016),Xxchetahx (9. July 2016),Zap (10. July 2016)

Lesezeichen

Berechtigungen

  • Neue Themen erstellen: Nein
  • Themen beantworten: Nein
  • Anhänge hochladen: Nein
  • Beiträge bearbeiten: Nein
  •  

1 2 3 4 5 6 7 8 9 10 11 12 13 14 15 16 17 18 19 20 21 22 23 24 25 26 27 28 29 30 31 32 33 34 35 36 37 38 39 40 41 42 43 44 45 46 47 48 49 50 51 52 53 54 55 56 57 58 59 60 61 62 63 64 65 66 67 68 69 70 71 72 73 74 75 76 77 78 79 80 81 82 83 84 85 86 87 88 89 90 91 92 93 94 95 96 97 98 99 100 101 102 103 104 105 106 107 108 109 110 111 112 113 114 115 116 117 118 119 120 121 122 123 124 125 126 127 128 129 130 131 132 133 134 135 136 137 138 139 140 141 142 143 144 145 146 147 148 149 150 151 152 153 154 155 156 157 158