Ergebnis 1 bis 4 von 4

Thema: Bubblegum Crisis - Die Cyberpunk Saga [Jap-Dub][Ger-Eng-Sub][720p][Bluray]

Dieser Thread wurde noch nicht bewertet. Bewerte ihn doch, wenn er dir gefällt!
  1. #1
    Erfahrener Otaku Avatar von ohlong
    Registriert seit
    Sep 2013
    Ort
    Im Herzen Deutschlands
    Beiträge
    151
    Punkte
    5.807
    Errungenschaften:
    TomodachisTagger Profi5000 ErfahrungspunkteHikikomori

    Bubblegum Crisis - Die Cyberpunk Saga [Jap-Dub][Ger-Eng-Sub][720p][Bluray]



    Bubblegum Crisis
    バブルガムクライシス
    Bubblegum Crisis - Die Cyberpunk Saga
    Bubblegum Crisis 2032
    Bubblegum Crisis 2033
    Baburugamu kuraishisu
    BGC





    Kurzbeschreibung
    Wir befinden uns im Jahr 2032. Mega-Tokyo erholt sich noch vom letzten großen Kanto-Erdbeben, als plötzlich neue Zwischenfälle die Metropole erschüttern. Amoklaufende Roboter, auch genannt Boomer, machen die Straßen unsicher und die A.D.-Police hat alle Hände voll zu tun. Die Einzigen, die sich den außer Kontrolle geratenen Boomern mit Erfolg stellen können, sind die Knight Sabers. Eine vierköpfige Söldnerinnentruppe, die mit hochmodernen Kampfanzügen ausgestattet ist.

    Sprache: Japanisch (AC3)
    Untertitel: Deutsch, Englisch (ASS)
    Genre: Action, Sci-Fi, Bionische Kräfte, Cyberpunk,
    Drama, Real Robots, Roboter & Androiden
    Source: Bluray
    Format: mkv
    Video-Codec: x264
    Episoden: 8/8
    Resolution: 956x720
    Größe: 1,14GB-2,14GB
    Releaser: THORA, MeisterMutaito
    Hoster: Share-Online, Uploaded


    Technische Informationen
    Spoiler
    Code:
    Format                                   : Matroska
    Format version                           : Version 2
    File size                                : 2.00 GiB
    Duration                                 : 46mn 37s
    Overall bit rate                         : 6 150 Kbps
    Movie name                               : Bubblegum_Crisis_E01_Tinsel_City_[720p JAP.Dub GER-ENG.Sub]_THORA_MeisterMutaito
    Encoded date                             : UTC 2011-06-08 11:56:57
    Writing application                      : mkvmerge v4.0.0 ('The Stars were mine') gebaut am Jun  6 2010 16:18:42
    Writing library                          : libebml v1.0.0 + libmatroska v1.0.0
    Attachment                               : Yes / Yes / Yes
    
    Video
    ID                                       : 1
    Format                                   : AVC
    Format/Info                              : Advanced Video Codec
    Format profile                           : [email protected]
    Format settings, CABAC                   : Yes
    Format settings, ReFrames                : 8 frames
    Codec ID                                 : V_MPEG4/ISO/AVC
    Duration                                 : 46mn 37s
    Bit rate                                 : 5 700 Kbps
    Width                                    : 956 pixels
    Height                                   : 720 pixels
    Display aspect ratio                     : 4:3
    Frame rate                               : 23.976 fps
    Color space                              : YUV
    Chroma subsampling                       : 4:2:0
    Bit depth                                : 8 bits
    Scan type                                : Progressive
    Bits/(Pixel*Frame)                       : 0.345
    Stream size                              : 1.82 GiB (91%)
    Title                                    : THORA,MeisterMutaito
    Writing library                          : x264 core 65 r1046M 71d34b4
    Encoding settings                        : cabac=1 / ref=8 / deblock=1:-3:-3 / analyse=0x3:0x133 / me=umh / subme=9 / psy_rd=0.8:0.6 / mixed_ref=1 / me_range=24 / chroma_me=1 / trellis=2 / 8x8dct=1 / cqm=2 / deadzone=21,11 / chroma_qp_offset=-4 / threads=3 / nr=0 / decimate=1 / mbaff=0 / bframes=3 / b_pyramid=1 / b_adapt=2 / b_bias=0 / direct=3 / wpredb=1 / keyint=250 / keyint_min=25 / scenecut=40(pre) / rc=2pass / bitrate=5700 / ratetol=1.0 / qcomp=0.60 / qpmin=10 / qpmax=25 / qpstep=4 / cplxblur=20.0 / qblur=0.5 / ip_ratio=1.40 / pb_ratio=1.30 / aq=1:0.65
    Language                                 : Japanese
    Default                                  : Yes
    Forced                                   : No
    
    Audio
    ID                                       : 2
    Format                                   : AC-3
    Format/Info                              : Audio Coding 3
    Mode extension                           : CM (complete main)
    Format settings, Endianness              : Big
    Codec ID                                 : A_AC3
    Duration                                 : 46mn 37s
    Bit rate mode                            : Constant
    Bit rate                                 : 448 Kbps
    Channel(s)                               : 2 channels
    Channel positions                        : Front: L R
    Sampling rate                            : 48.0 KHz
    Bit depth                                : 16 bits
    Compression mode                         : Lossy
    Stream size                              : 149 MiB (7%)
    Title                                    : Japanisch
    Language                                 : Japanese
    Default                                  : Yes
    Forced                                   : No
    
    Text #1
    ID                                       : 3
    Format                                   : ASS
    Codec ID                                 : S_TEXT/ASS
    Codec ID/Info                            : Advanced Sub Station Alpha
    Compression mode                         : Lossless
    Title                                    : Full
    Language                                 : English
    Default                                  : No
    Forced                                   : No
    
    Text #2
    ID                                       : 4
    Format                                   : ASS
    Codec ID                                 : S_TEXT/ASS
    Codec ID/Info                            : Advanced Sub Station Alpha
    Compression mode                         : Lossless
    Title                                    : Full
    Language                                 : German
    Default                                  : Yes
    Forced                                   : No



    Password
    [email protected]

    Geschützter Bereich - Bedanke dich beim Poster, um den Bereich sehen zu können
    Hier erfährst Du wie Du Dich bedanken kannst oder werde jetzt Premium Mitglied ab einer Spende von 5€ und erhalte sofortigen Zugriff auf den Downloadbereich!

    Geändert von ohlong (12. January 2016 um 13:28 Uhr)

  2. 42 Benutzer sagen Danke:

    acer25 (13. April 2014),aironic_inactive (19. July 2015),Akio (8. December 2015),alecander (29. September 2014),amzal (8. February 2016),Antipott (25. September 2014),bloodyfloh (25. August 2015),Draagul (13. April 2014),Gatti1983 (16. May 2014),GhostHunterD_inactive (12. March 2015),Ghostraven (30. August 2015),haltdiefresse (3. December 2015),Jarcath (14. March 2015),JoleenLovesMina (9. April 2014),Kalchi (18. July 2016),kei (29. January 2015),Langraiser83 (12. July 2015),Maggotcarrier (28. December 2014),MasterRei (20. November 2014),midnighter (23. November 2014),nabou (13. April 2014),nemo (27. August 2015),NewBlade (15. April 2014),Oranje (11. October 2014),pahso (30. June 2016),Ronae (27. August 2015),Roy_Coleman (3. May 2014),Sense (8. November 2014),Shenra (27. June 2015),Smasher25 (9. September 2014),SnowCat (16. April 2014),Speznat (23. September 2014),starforce (13. April 2014),Subroutine (1. February 2014),syncity (11. March 2016),sys_x (18. March 2014),tatsujin07_inactive (19. March 2015),ter_Kapitalist (6. February 2014),XRA9 (13. April 2014),Zaisen (17. April 2014),zeroscorp (21. March 2015)

  3. #2
    Erfahrener Otaku Avatar von ohlong
    Registriert seit
    Sep 2013
    Ort
    Im Herzen Deutschlands
    Beiträge
    151
    Punkte
    5.807
    Errungenschaften:
    TomodachisTagger Profi5000 ErfahrungspunkteHikikomori

    AW: Bubblegum Crisis - Die Cyberpunk Saga [Jap.Dub][Ger.Eng.Sub][720p][Bluray]

    Reup auf Wunsch, auf Share-Online und Uploaded.

  4. 1 Benutzer sagt Danke:

    ter_Kapitalist (14. April 2014)

  5. #3
    Erfahrener Otaku Avatar von ohlong
    Registriert seit
    Sep 2013
    Ort
    Im Herzen Deutschlands
    Beiträge
    151
    Punkte
    5.807
    Errungenschaften:
    TomodachisTagger Profi5000 ErfahrungspunkteHikikomori

    AW: Bubblegum Crisis - Die Cyberpunk Saga [Jap.Dub][Ger.Eng.Sub][720p][Bluray]

    Nochmal auf Wunsch neu hochgeladen, auf Share-Online und Uploaded.

  6. 1 Benutzer sagt Danke:

    Oranje (11. October 2014)

  7. #4
    Erfahrener Otaku Avatar von ohlong
    Registriert seit
    Sep 2013
    Ort
    Im Herzen Deutschlands
    Beiträge
    151
    Punkte
    5.807
    Errungenschaften:
    TomodachisTagger Profi5000 ErfahrungspunkteHikikomori

    AW: Bubblegum Crisis - Die Cyberpunk Saga [Jap.Dub][Ger.Eng.Sub][720p][Bluray]

    Reup auf Share-Online und Uploaded

Stichworte

Lesezeichen

Berechtigungen

  • Neue Themen erstellen: Nein
  • Themen beantworten: Nein
  • Anhänge hochladen: Nein
  • Beiträge bearbeiten: Nein
  •  

1 2 3 4 5 6 7 8 9 10 11 12 13 14 15 16 17 18 19 20 21 22 23 24 25 26 27 28 29 30 31 32 33 34 35 36 37 38 39 40 41 42 43 44 45 46 47 48 49 50 51 52 53 54 55 56 57 58 59 60 61 62 63 64 65 66 67 68 69 70 71 72 73 74 75 76 77 78 79 80 81 82 83 84 85 86 87 88 89 90 91 92 93 94 95 96 97 98 99 100 101 102 103 104 105 106 107 108 109 110 111 112 113 114 115 116 117 118 119 120 121 122 123 124 125 126 127 128 129 130 131 132 133 134 135 136 137 138 139 140 141 142 143 144 145 146 147 148 149 150 151 152 153 154 155 156 157 158