Ergebnis 1 bis 1 von 1

Thema: Bubblegum Crisis Tokyo 2040 [Jap-Dub][Ger-Sub][480p][DVDRip] - subs4u

Dieser Thread wurde noch nicht bewertet. Bewerte ihn doch, wenn er dir gefällt!
  1. #1
    United we Stand Avatar von 00Ryuji00
    Registriert seit
    Oct 2012
    Beiträge
    3.902
    Punkte
    100.019
    Errungenschaften:
    TomodachisGang LeaderHikikomoriTagger Amateur50000 Erfahrungspunkte

    Bubblegum Crisis Tokyo 2040 [Jap-Dub][Ger-Sub][480p][DVDRip] - subs4u


    Bubblegum Crisis Tokyo 2040

    バブルガムクライシスTokyo 2040
    Bubblegum Crisis TV



    Kurzbeschreibung:
    Zitat Zitat von AniSearch.com
    Wir schreiben das Jahr 2040. Das große Beben, welches Tokyo vor einiger Zeit schwer traf, scheint fast schon wieder vergessen. Dank dafür gebührt den menschenähnlichen Robotern, genannt 'Boomer'. Doch stattdessen treten die meisten Menschen ihnen feindselig gegenüber. Das ab und an einer dieser Boomer außer Kontrolle gerät, will man genausowenig zugegeben, wie die Existenz eines Helden, der sich um solche Eskalationen auf eigene Faust zu kümmern scheint.
    Spieldauer: 24min
    Genre: Action
    Nebengenres: Action, Mecha, Männlich, Sci-Fi
    Jahr: 1998
    Sprache: Japanisch
    Untertitel: Deutsch
    Größe pro Folge: ~ 230MB
    Episodenanzahl: 26/26
    Format: mp4
    Auflösung: 480p (4:3)
    Videocodec: x264 (AVC)
    Audiocodec: AAC
    Releasegruppe: subs4u
    Hoster: Uploaded, Share-Online

    MediaInfo
    Code:
    
    Format                                   : MPEG-4
    Format profile                           : Base Media
    Codec ID                                 : isom
    File size                                : 229 MiB
    Duration                                 : 24mn 34s
    Overall bit rate mode                    : Variable
    Overall bit rate                         : 1 302 Kbps
    Encoded date                             : UTC 2011-10-04 21:56:35
    Tagged date                              : UTC 2011-10-04 21:56:35
    
    Video
    ID                                       : 1
    Format                                   : AVC
    Format/Info                              : Advanced Video Codec
    Format profile                           : [email protected]
    Format settings, CABAC                   : Yes
    Format settings, ReFrames                : 3 frames
    Codec ID                                 : avc1
    Codec ID/Info                            : Advanced Video Coding
    Duration                                 : 24mn 34s
    Source duration                          : 4mn 17s
    Bit rate                                 : 1 200 Kbps
    Maximum bit rate                         : 3 544 Kbps
    Width                                    : 640 pixels
    Height                                   : 480 pixels
    Display aspect ratio                     : 4:3
    Frame rate mode                          : Constant
    Frame rate                               : 23.976 fps
    Color space                              : YUV
    Chroma subsampling                       : 4:2:0
    Bit depth                                : 8 bits
    Scan type                                : Progressive
    Bits/(Pixel*Frame)                       : 0.163
    Stream size                              : 211 MiB (92%)
    Source stream size                       : 211 MiB (92%)
    Writing library                          : x264 core 116 r2074 2641b9e
    Encoding settings                        : cabac=1 / ref=3 / deblock=1:0:0 / analyse=0x3:0x113 / me=umh / subme=6 / psy=1 / psy_rd=1.00:0.00 / mixed_ref=1 / me_range=12 / chroma_me=1 / trellis=2 / 8x8dct=1 / cqm=0 / deadzone=21,11 / fast_pskip=1 / chroma_qp_offset=-2 / threads=6 / sliced_threads=0 / nr=0 / decimate=1 / interlaced=0 / bluray_compat=0 / constrained_intra=0 / bframes=3 / b_pyramid=0 / b_adapt=2 / b_bias=0 / direct=3 / weightb=1 / open_gop=0 / weightp=2 / keyint=250 / keyint_min=23 / scenecut=40 / intra_refresh=0 / rc_lookahead=30 / rc=2pass / mbtree=0 / bitrate=1200 / ratetol=1.0 / qcomp=0.50 / qpmin=10 / qpmax=51 / qpstep=4 / cplxblur=20.0 / qblur=0.5 / vbv_maxrate=24000 / vbv_bufsize=24000 / nal_hrd=none / ip_ratio=1.10 / pb_ratio=1.10 / aq=1:1.00
    Encoded date                             : UTC 2011-10-04 21:56:35
    Tagged date                              : UTC 2011-10-04 21:56:54
    mdhd_Duration                            : 1474890
    
    Audio
    ID                                       : 2
    Format                                   : AAC
    Format/Info                              : Advanced Audio Codec
    Format profile                           : HE-AAC / LC
    Codec ID                                 : 40
    Duration                                 : 24mn 34s
    Bit rate mode                            : Variable
    Bit rate                                 : 96.0 Kbps
    Maximum bit rate                         : 114 Kbps
    Channel count                            : 2 channels
    Channel positions                        : Front: L R
    Sampling rate                            : 48.0 KHz / 24.0 KHz
    Compression mode                         : Lossy
    Stream size                              : 16.9 MiB (7%)
    Encoded date                             : UTC 2011-10-04 21:56:54
    Tagged date                              : UTC 2011-10-04 21:56:54

    Geschützter Bereich - Bedanke dich beim Poster, um den Bereich sehen zu können
    Hier erfährst Du wie Du Dich bedanken kannst oder werde jetzt Premium Mitglied ab einer Spende von 5€ und erhalte sofortigen Zugriff auf den Downloadbereich!
    !!!Alle Anliegen bezüglich Uploads werden nur mit direktem Threadlink zum Angebot bearbeitet!!!

    Re-Uploadanfragen nur per PN - Ihr könnt mir auch Listen schicken

    Re-Uploads erfolgen meist innerhalb 24h, kann aber auch bis zu 7 Tage dauern

    [Links sind nur für registrierte und aktivierte Nutzer sichtbar. Klicke hier um dich zu registrieren.] | [Links sind nur für registrierte und aktivierte Nutzer sichtbar. Klicke hier um dich zu registrieren.] | >[Links sind nur für registrierte und aktivierte Nutzer sichtbar. Klicke hier um dich zu registrieren.]<
    [Links sind nur für registrierte und aktivierte Nutzer sichtbar. Klicke hier um dich zu registrieren.]

  2. 11 Benutzer sagen Danke:

    Akio (23. August 2015),Aluaran (12. August 2015),animeathome (11. September 2015),dreambird1973 (20. April 2016),Grinchi (12. March 2016),madmax916sps (14. August 2015),midnighter (12. August 2015),Nanatzusaya (11. August 2015),old nick (12. August 2015),Ronae (15. August 2015),SerienStream (31. August 2015)

Lesezeichen

Berechtigungen

  • Neue Themen erstellen: Nein
  • Themen beantworten: Nein
  • Anhänge hochladen: Nein
  • Beiträge bearbeiten: Nein
  •  

1 2 3 4 5 6 7 8 9 10 11 12 13 14 15 16 17 18 19 20 21 22 23 24 25 26 27 28 29 30 31 32 33 34 35 36 37 38 39 40 41 42 43 44 45 46 47 48 49 50 51 52 53 54 55 56 57 58 59 60 61 62 63 64 65 66 67 68 69 70 71 72 73 74 75 76 77 78 79 80 81 82 83 84 85 86 87 88 89 90 91 92 93 94 95 96 97 98 99 100 101 102 103 104 105 106 107 108 109 110 111 112 113 114 115 116 117 118 119 120 121 122 123 124 125 126 127 128 129 130 131 132 133 134 135 136 137 138 139 140 141 142 143 144 145 146 147 148 149 150 151 152 153 154 155 156 157 158