Ergebnis 1 bis 11 von 11

Thema: Comet Lucifer [Jap-Dub][Ger-Sub][720p][8Bit/10Bit][WebRip] - Chinurarete-Subs

Dieser Thread wurde noch nicht bewertet. Bewerte ihn doch, wenn er dir gefällt!
  1. #1
    United we Stand Avatar von 00Ryuji00
    Registriert seit
    Oct 2012
    Beiträge
    3.902
    Punkte
    99.909
    Errungenschaften:
    TomodachisGang LeaderHikikomoriTagger Amateur50000 Erfahrungspunkte

    Comet Lucifer [Jap-Dub][Ger-Sub][720p][8Bit/10Bit][WebRip] - Chinurarete-Subs

    Comet Lucifer
    コメット・ルシファー



    Kurzbeschreibung:
    Zitat Zitat von AniSearch.com
    Gift, eine Welt in der wertvolle blaue Kristalle namens Giftjium unter der Erde verborgen sind. Sougo Amagi ist ein junger Mann, dessen Hobby es ist, seltene Kristalle zu sammeln. Er lebt in der Stadt Garden Indigo, welche durch den Abbau des Giftjium floriert. Eines Tages wird er in eine Auseinandersetzung zwischen seinen Klassenkameraden Kaon, Roman und Otto verwickelt und verirrt sich, bis er auf einen See tief unter den Bergbauruinen der Stadt stößt. Dort hat er eine Begegnung mit einem geheimnisvollen Mädchen mit blauem Haar und roten Augen, welche den Beginn eines Abenteuers markiert ...
    Spieldauer: 24min
    Genre: Abenteuer
    Nebengenres: Abenteuer, Fantasy, Sci-Fi
    Jahr: 2015
    Sprache: Japanisch
    Untertitel: Deutsch
    Größe pro Folge: ~ 510MB/600MB
    Episodenanzahl: 12/12
    Format: MP4, MKV
    Auflösung: 720p (16:9)
    Videocodec: x264 (AVC), 8Bit/10Bit
    Audiocodec: AAC
    Releasegruppe: Chinurarete-Subs
    Hoster: Uploaded, Share-Online

    MediaInfo
    720p-8Bit
    Code:
    
    Format                                   : MPEG-4
    Format profile                           : Base Media
    Codec ID                                 : isom
    File size                                : 506 MiB
    Duration                                 : 23mn 53s
    Overall bit rate mode                    : Variable
    Overall bit rate                         : 2 962 Kbps
    Encoded date                             : UTC 2015-10-06 17:20:50
    Tagged date                              : UTC 2015-10-06 17:20:50
    
    Video
    ID                                       : 1
    Format                                   : AVC
    Format/Info                              : Advanced Video Codec
    Format profile                           : [email protected]
    Format settings, CABAC                   : Yes
    Format settings, ReFrames                : 9 frames
    Codec ID                                 : avc1
    Codec ID/Info                            : Advanced Video Coding
    Duration                                 : 23mn 53s
    Bit rate                                 : 2 830 Kbps
    Maximum bit rate                         : 16.0 Mbps
    Width                                    : 1 280 pixels
    Height                                   : 720 pixels
    Display aspect ratio                     : 16:9
    Frame rate mode                          : Constant
    Frame rate                               : 23.976 fps
    Color space                              : YUV
    Chroma subsampling                       : 4:2:0
    Bit depth                                : 8 bits
    Scan type                                : Progressive
    Bits/(Pixel*Frame)                       : 0.128
    Stream size                              : 484 MiB (96%)
    Writing library                          : x264 core 142 r2409kMod d6b4e63
    Encoding settings                        : cabac=1 / ref=9 / deblock=1:0:0 / analyse=0x1:0x131 / me=umh / subme=11 / psy=1 / fade_compensate=0.00 / psy_rd=1.00:0.00 / mixed_ref=1 / me_range=32 / chroma_me=1 / trellis=2 / 8x8dct=0 / cqm=0 / deadzone=21,11 / fast_pskip=0 / chroma_qp_offset=-2 / threads=6 / lookahead_threads=1 / sliced_threads=0 / nr=0 / decimate=0 / interlaced=0 / bluray_compat=0 / constrained_intra=0 / fgo=0 / bframes=16 / b_pyramid=2 / b_adapt=2 / b_bias=0 / direct=3 / weightb=1 / open_gop=0 / weightp=2 / keyint=250 / keyint_min=23 / scenecut=40 / intra_refresh=0 / rc_lookahead=250 / rc=crf / mbtree=1 / crf=16.0000 / qcomp=0.75 / qpmin=0 / qpmax=69 / qpstep=4 / ip_ratio=1.40 / aq=2:0.86
    Encoded date                             : UTC 2015-10-06 17:20:50
    Tagged date                              : UTC 2015-10-06 17:20:52
    Color primaries                          : BT.709
    Transfer characteristics                 : BT.709
    Matrix coefficients                      : BT.709
    
    Audio
    ID                                       : 2
    Format                                   : AAC
    Format/Info                              : Advanced Audio Codec
    Format profile                           : LC
    Codec ID                                 : 40
    Duration                                 : 23mn 53s
    Bit rate mode                            : Variable
    Bit rate                                 : 128 Kbps
    Maximum bit rate                         : 197 Kbps
    Channel count                            : 2 channels
    Channel positions                        : Front: L R
    Sampling rate                            : 44.1 KHz
    Compression mode                         : Lossy
    Stream size                              : 21.9 MiB (4%)
    Encoded date                             : UTC 2015-10-06 17:20:52
    Tagged date                              : UTC 2015-10-06 17:20:52
    
    Menu
    00:00:00.000                             : Einleitung
    00:03:34.542                             : Opening
    00:05:04.095                             : Hauptteil
    00:22:23.160                             : Ending
    
    720p-10Bit
    Code:
    
    Format                                   : Matroska
    Format version                           : Version 4 / Version 2
    File size                                : 601 MiB
    Duration                                 : 23mn 40s
    Overall bit rate                         : 3 548 Kbps
    Movie name                               : [Chinurarete Subs]Comet Lucifer - Folge 01 - Ein Junge und die große, weite Welt
    Encoded date                             : UTC 2015-10-07 17:56:36
    Writing application                      : mkvmerge v7.0.0 ('Where We Going') 64bit built on Jun  9 2014 15:16:27
    Writing library                          : libebml v1.3.0 + libmatroska v1.4.1
    _STATISTICS_WRITING_APP                  : mkvmerge v7.0.0 ('Where We Going') 64bit built on Jun  9 2014 15:16:27
    _STATISTICS_WRITING_DATE_UTC             : 2015-10-07 17:56:36
    _STATISTICS_TAGS                         : BPS DURATION NUMBER_OF_FRAMES NUMBER_OF_BYTES
    DURATION                                 : 00:23:40.800000000
    NUMBER_OF_FRAMES                         : 3767
    NUMBER_OF_BYTES                          : 591583
    Attachment                               : Yes / Yes / Yes / Yes / Yes / Yes / Yes / Yes / Yes / Yes / Yes / Yes / Yes / Yes / Yes / Yes / Yes / Yes / Yes / Yes / Yes / Yes / Yes / Yes / Yes / Yes
    
    Video
    ID                                       : 1
    Format                                   : AVC
    Format/Info                              : Advanced Video Codec
    Format profile                           : High [email protected]
    Format settings, CABAC                   : Yes
    Format settings, ReFrames                : 16 frames
    Codec ID                                 : V_MPEG4/ISO/AVC
    Duration                                 : 23mn 40s
    Width                                    : 1 280 pixels
    Height                                   : 720 pixels
    Display aspect ratio                     : 16:9
    Frame rate mode                          : Constant
    Frame rate                               : 23.976 fps
    Color space                              : YUV
    Chroma subsampling                       : 4:2:0
    Bit depth                                : 10 bits
    Scan type                                : Progressive
    Title                                    : Video
    Writing library                          : x264 core 133 r2334 a3ac64b
    Encoding settings                        : cabac=1 / ref=16 / deblock=1:1:0 / analyse=0x3:0x133 / me=umh / subme=11 / psy=1 / psy_rd=1.15:0.25 / mixed_ref=1 / me_range=30 / chroma_me=1 / trellis=2 / 8x8dct=1 / cqm=0 / deadzone=21,11 / fast_pskip=0 / chroma_qp_offset=-4 / threads=12 / lookahead_threads=3 / sliced_threads=0 / nr=0 / decimate=0 / interlaced=0 / bluray_compat=0 / constrained_intra=0 / bframes=16 / b_pyramid=2 / b_adapt=2 / b_bias=0 / direct=3 / weightb=1 / open_gop=0 / weightp=2 / keyint=249 / keyint_min=23 / scenecut=40 / intra_refresh=0 / rc_lookahead=249 / rc=crf / mbtree=1 / crf=16.0 / qcomp=0.90 / qpmin=0 / qpmax=81 / qpstep=4 / ip_ratio=1.40 / aq=2:0.80
    Language                                 : German
    Default                                  : Yes
    Forced                                   : No
    Color primaries                          : BT.709
    Transfer characteristics                 : BT.709
    Matrix coefficients                      : BT.709
    
    Audio
    ID                                       : 2
    Format                                   : AAC
    Format/Info                              : Advanced Audio Codec
    Format profile                           : LC
    Codec ID                                 : A_AAC
    Duration                                 : 23mn 40s
    Channel count                            : 2 channels
    Channel positions                        : Front: L R
    Sampling rate                            : 44.1 KHz
    Compression mode                         : Lossy
    Title                                    : Audio
    Language                                 : Japanese
    Default                                  : Yes
    Forced                                   : No
    
    Text #1
    ID                                       : 3
    Format                                   : ASS
    Codec ID                                 : S_TEXT/ASS
    Codec ID/Info                            : Advanced Sub Station Alpha
    Compression mode                         : Lossless
    Title                                    : Farbsub
    Language                                 : German
    Default                                  : Yes
    Forced                                   : Yes
    
    Text #2
    ID                                       : 4
    Format                                   : ASS
    Codec ID                                 : S_TEXT/ASS
    Codec ID/Info                            : Advanced Sub Station Alpha
    Compression mode                         : Lossless
    Title                                    : Kein Farbsub
    Language                                 : German
    Default                                  : No
    Forced                                   : No
    
    Menu
    00:00:00.000                             : :Einleitung
    00:03:34.542                             : :Opening
    00:05:04.095                             : :Hauptteil
    00:22:10.152                             : :Ending




    Geschützter Bereich - Bedanke dich beim Poster, um den Bereich sehen zu können
    Hier erfährst Du wie Du Dich bedanken kannst oder werde jetzt Premium Mitglied ab einer Spende von 5€ und erhalte sofortigen Zugriff auf den Downloadbereich!


    [Links sind nur für registrierte und aktivierte Nutzer sichtbar. Klicke hier um dich zu registrieren.]
    Geändert von 00Ryuji00 (27. May 2016 um 13:27 Uhr)
    !!!Alle Anliegen bezüglich Uploads werden nur mit direktem Threadlink zum Angebot bearbeitet!!!

    Re-Uploadanfragen nur per PN - Ihr könnt mir auch Listen schicken

    Re-Uploads erfolgen meist innerhalb 24h, kann aber auch bis zu 7 Tage dauern

    [Links sind nur für registrierte und aktivierte Nutzer sichtbar. Klicke hier um dich zu registrieren.] | [Links sind nur für registrierte und aktivierte Nutzer sichtbar. Klicke hier um dich zu registrieren.] | >[Links sind nur für registrierte und aktivierte Nutzer sichtbar. Klicke hier um dich zu registrieren.]<
    [Links sind nur für registrierte und aktivierte Nutzer sichtbar. Klicke hier um dich zu registrieren.]

  2. 82 Benutzer sagen Danke:

    Anzeigen

    a99misterx99 (8. December 2015),adinin (11. October 2015),AKira_Hidaka (28. May 2016),Akulti (24. January 2016),Alaric (23. November 2015),AngelNine (10. October 2015),Arekusu (12. October 2016),Arjuna (7. June 2016),ArMiN231 (2. November 2015),Artheanos (30. November 2015),Blackdragon1702 (30. January 2016),Bloodrevenge (6. June 2016),Bloodyair (11. October 2015),Blubyblub (12. October 2015),bra1nbug94 (17. October 2015),Buze (8. October 2015),Cande (8. October 2015),CKSI (26. October 2015),coldbears48 (31. October 2015),Dark Justice (11. November 2015),DJPAUL1990 (25. October 2015),Drachengott (17. October 2015),duscha2925 (25. January 2016),EngelEatos (4. July 2016),eraz (9. November 2015),Firefly (26. June 2016),Flowbow (5. November 2016),FreshMagma (12. October 2015),GammaWar (28. October 2015),Geisterhaendler (3. February 2016),heikobaer (23. January 2016),HellSPawn91 (18. November 2015),herrwefer (11. October 2015),hnnnn (1. February 2016),hraver (8. October 2015),Ignasum (18. October 2015),IRazziCz (8. October 2015),IshiFuroito (29. December 2015),johnny10 (9. November 2015),Juckz (24. January 2016),Kalchi (24. July 2016),Kartox (16. November 2015),kashmael (15. November 2016),KeXiuS (23. January 2016),Killua (17. October 2015),Kradus (24. February 2016),LawMugen (10. February 2016),Magikarp (29. May 2016),mauslea (28. January 2016),Max13493 (11. October 2015),mccharly (29. January 2016),midnighter (10. October 2015),Mr.Shit (12. October 2016),Murtagks (11. October 2015),n3xus386 (20. November 2015),Nanatzusaya (30. November 2015),Noire16 (14. October 2015),Nyno (2. January 2016),OtakuTim (23. January 2016),prinzvegeta (1. February 2016),RaienryuuRgr (9. February 2016),re.tischi (20. January 2016),rekiznuh1 (11. October 2015),Riyadoris (17. December 2015),Ronae (24. November 2015),Silent467 (9. October 2015),Sirius (17. October 2015),SnowCat (4. June 2016),SONNYxq (11. October 2015),Sora (13. October 2016),ssj3shad (24. December 2015),Suigetsu (11. October 2015),TakashiKudo (25. October 2015),tokyodrift (18. October 2015),Tsunderekrieger (3. April 2016),Wakaba (5. September 2016),Windwusel (23. January 2016),Xerx3s (15. February 2016),xhellsingx (3. November 2016),Zap (14. October 2015),ZER0XIII (23. November 2015),ZeroCM89 (10. April 2016)

  3. #2
    Uploader Avatar von Filbo11
    Registriert seit
    Jan 2015
    Beiträge
    931
    Punkte
    17.281
    Errungenschaften:
    TomodachisErste Gruppe1 Jahr registriertCreated Album picturesTagger First Class

    AW: Comet Lucifer [Jap-Dub][Ger-Sub][720p][8Bit/10Bit][WebRip] - Chinurarete-Subs

    Comet Lucifer
    コメット・ルシファー




    Beschreibung

    Gift, eine Welt in der wertvolle blaue Kristalle namens Giftjium unter der Erde verborgen sind. Sougo Amagi ist ein junger Mann, dessen Hobby es ist, seltene Kristalle zu sammeln. Er lebt in der Stadt Garden Indigo, welche durch den Abbau des Giftjium floriert. Eines Tages wird er in eine Auseinandersetzung zwischen seinen Klassenkameraden Kaon, Roman und Otto verwickelt und verirrt sich, bis er auf einen See tief unter den Bergbauruinen der Stadt stößt. Dort hat er eine Begegnung mit einem geheimnisvollen Mädchen mit blauem Haar und roten Augen, welche den Beginn eines Abenteuers markiert ...


    Format: mp4 [8Bit] / mkv [10Bit]
    Dauer: ca. 24 min
    Größe: ca. 506 MB [8Bit] / 600 MB [10Bit]
    Sprache: Japanisch
    Untertitel: Deutsch
    Group: [Chinurarete Subs]
    Hoster: Uploaded.net & Share-Online.biz
    kein PW


    Screenshots & MediaInfo

    8Bit
    [Links sind nur für registrierte und aktivierte Nutzer sichtbar. Klicke hier um dich zu registrieren.]

    Code:
    General
    Complete name               : [Chinurarete_Subs]Comet_Lucifer_Folge_01_8BIT.mp4
    Format                      : MPEG-4
    Format profile              : Base Media
    Codec ID                    : isom
    File size                   : 506 MiB
    Duration                    : 23mn 53s
    Overall bit rate mode       : Variable
    Overall bit rate            : 2 962 Kbps
    Encoded date                : UTC 2015-10-06 17:20:50
    Tagged date                 : UTC 2015-10-06 17:20:50
    
    Video
    ID                          : 1
    Format                      : AVC
    Format/Info                 : Advanced Video Codec
    Format profile              : [email protected]
    Format settings, CABAC      : Yes
    Format settings, ReFrames   : 9 frames
    Codec ID                    : avc1
    Codec ID/Info               : Advanced Video Coding
    Duration                    : 23mn 53s
    Bit rate                    : 2 830 Kbps
    Maximum bit rate            : 16.0 Mbps
    Width                       : 1 280 pixels
    Height                      : 720 pixels
    Display aspect ratio        : 16:9
    Frame rate mode             : Constant
    Frame rate                  : 23.976 fps
    Color space                 : YUV
    Chroma subsampling          : 4:2:0
    Bit depth                   : 8 bits
    Scan type                   : Progressive
    Bits/(Pixel*Frame)          : 0.128
    Stream size                 : 484 MiB (96%)
    Writing library             : x264 core 142 r2409kMod d6b4e63
    Encoding settings           : cabac=1 / ref=9 / deblock=1:0:0 / analyse=0x1:0x131 / me=umh / subme=11 / psy=1 / fade_compensate=0.00 / psy_rd=1.00:0.00 / mixed_ref=1 / me_range=32 / chroma_me=1 / trellis=2 / 8x8dct=0 / cqm=0 / deadzone=21,11 / fast_pskip=0 / chroma_qp_offset=-2 / threads=6 / lookahead_threads=1 / sliced_threads=0 / nr=0 / decimate=0 / interlaced=0 / bluray_compat=0 / constrained_intra=0 / fgo=0 / bframes=16 / b_pyramid=2 / b_adapt=2 / b_bias=0 / direct=3 / weightb=1 / open_gop=0 / weightp=2 / keyint=250 / keyint_min=23 / scenecut=40 / intra_refresh=0 / rc_lookahead=250 / rc=crf / mbtree=1 / crf=16.0000 / qcomp=0.75 / qpmin=0 / qpmax=69 / qpstep=4 / ip_ratio=1.40 / aq=2:0.86
    Encoded date                : UTC 2015-10-06 17:20:50
    Tagged date                 : UTC 2015-10-06 17:20:52
    Color range                 : Limited
    Color primaries             : BT.709
    Transfer characteristics    : BT.709
    Matrix coefficients         : BT.709
    
    Audio
    ID                          : 2
    Format                      : AAC
    Format/Info                 : Advanced Audio Codec
    Format profile              : LC
    Codec ID                    : 40
    Duration                    : 23mn 53s
    Bit rate mode               : Variable
    Bit rate                    : 128 Kbps
    Maximum bit rate            : 197 Kbps
    Channel(s)                  : 2 channels
    Channel positions           : Front: L R
    Sampling rate               : 44.1 KHz
    Compression mode            : Lossy
    Stream size                 : 21.9 MiB (4%)
    Encoded date                : UTC 2015-10-06 17:20:52
    Tagged date                 : UTC 2015-10-06 17:20:52
    
    Menu
    00:00:00.000                : Einleitung
    00:03:34.542                : Opening
    00:05:04.095                : Hauptteil
    00:22:23.160                : Ending


    10Bit
    [Links sind nur für registrierte und aktivierte Nutzer sichtbar. Klicke hier um dich zu registrieren.]

    Code:
    General
    
    Complete name               : [Chinurarete_Subs]Comet_Lucifer_Folge_01_10BIT.mkv
    Format                      : Matroska
    Format version              : Version 4 / Version 2
    File size                   : 601 MiB
    Duration                    : 23mn 40s
    Overall bit rate            : 3 548 Kbps
    Movie name                  : [Chinurarete Subs]Comet Lucifer - Folge 01 - Ein Junge und die große, weite Welt
    Encoded date                : UTC 2015-10-07 17:56:36
    Writing application         : mkvmerge v7.0.0 ('Where We Going') 64bit built on Jun  9 2014 15:16:27
    Writing library             : libebml v1.3.0 + libmatroska v1.4.1
    Attachements                : Amira-Semibold.otf / AppleGaramond-Light.ttf / Beacn.ttf / HIGHMIM.TTF / HIGHMOM.TTF / HIGHOB.TTF / JandaCurlygirlChunky.ttf / JandaEverydayCasual.ttf / JandaManateeBubble.ttf / JandaManateeSolid.ttf / LinBiolinum_aBL.ttf / LinBiolinum_aRL.ttf / LinBiolinum_aU.ttf / LinBiolinum_aUB.ttf / LinBiolinum_aUI.ttf / LinBiolinum_aW.ttf / LinBiolinum_aWB.ttf / LinBiolinum_aWI.ttf / LinBiolinum_K.ttf / LinBiolinum_R.ttf / LinBiolinum_RB.ttf / LinBiolinum_RI.ttf / times.ttf / 00563.TTF / LT_C.ttf / LTFinnegan_MediumItalic_2.ttf
    _STATISTICS_WRITING_APP     : mkvmerge v7.0.0 ('Where We Going') 64bit built on Jun  9 2014 15:16:27
    _STATISTICS_WRITING_DATE_UT : 2015-10-07 17:56:36
    _STATISTICS_TAGS            : BPS DURATION NUMBER_OF_FRAMES NUMBER_OF_BYTES
    DURATION                    : 00:23:40.800000000
    NUMBER_OF_FRAMES            : 3767
    NUMBER_OF_BYTES             : 591583
    
    Video
    ID                          : 1
    Format                      : AVC
    Format/Info                 : Advanced Video Codec
    Format profile              : High [email protected]
    Format settings, CABAC      : Yes
    Format settings, ReFrames   : 16 frames
    Codec ID                    : V_MPEG4/ISO/AVC
    Duration                    : 23mn 40s
    Width                       : 1 280 pixels
    Height                      : 720 pixels
    Display aspect ratio        : 16:9
    Frame rate mode             : Constant
    Frame rate                  : 23.976 fps
    Color space                 : YUV
    Chroma subsampling          : 4:2:0
    Bit depth                   : 10 bits
    Scan type                   : Progressive
    Title                       : Video
    Writing library             : x264 core 133 r2334 a3ac64b
    Encoding settings           : cabac=1 / ref=16 / deblock=1:1:0 / analyse=0x3:0x133 / me=umh / subme=11 / psy=1 / psy_rd=1.15:0.25 / mixed_ref=1 / me_range=30 / chroma_me=1 / trellis=2 / 8x8dct=1 / cqm=0 / deadzone=21,11 / fast_pskip=0 / chroma_qp_offset=-4 / threads=12 / lookahead_threads=3 / sliced_threads=0 / nr=0 / decimate=0 / interlaced=0 / bluray_compat=0 / constrained_intra=0 / bframes=16 / b_pyramid=2 / b_adapt=2 / b_bias=0 / direct=3 / weightb=1 / open_gop=0 / weightp=2 / keyint=249 / keyint_min=23 / scenecut=40 / intra_refresh=0 / rc_lookahead=249 / rc=crf / mbtree=1 / crf=16.0 / qcomp=0.90 / qpmin=0 / qpmax=81 / qpstep=4 / ip_ratio=1.40 / aq=2:0.80
    Language                    : German
    Default                     : Yes
    Forced                      : No
    Color range                 : Limited
    Color primaries             : BT.709
    Transfer characteristics    : BT.709
    Matrix coefficients         : BT.709
    
    Audio
    ID                          : 2
    Format                      : AAC
    Format/Info                 : Advanced Audio Codec
    Format profile              : LC
    Codec ID                    : A_AAC
    Duration                    : 23mn 40s
    Channel(s)                  : 2 channels
    Channel positions           : Front: L R
    Sampling rate               : 44.1 KHz
    Compression mode            : Lossy
    Title                       : Audio
    Language                    : Japanese
    Default                     : Yes
    Forced                      : No
    
    Text #1
    ID                          : 3
    Format                      : ASS
    Codec ID                    : S_TEXT/ASS
    Codec ID/Info               : Advanced Sub Station Alpha
    Compression mode            : Lossless
    Title                       : Farbsub
    Language                    : German
    Default                     : Yes
    Forced                      : Yes
    
    Text #2
    ID                          : 4
    Format                      : ASS
    Codec ID                    : S_TEXT/ASS
    Codec ID/Info               : Advanced Sub Station Alpha
    Compression mode            : Lossless
    Title                       : Kein Farbsub
    Language                    : German
    Default                     : No
    Forced                      : No
    
    Menu
    00:00:00.000                : :Einleitung
    00:03:34.542                : :Opening
    00:05:04.095                : :Hauptteil
    00:22:10.152                : :Ending


    Alle Mirrors untereinander kompatibel
    Folgen einzeln ladbar
    Folge 12/12 online


    Download

    Geschützter Bereich - Bedanke dich beim Poster, um den Bereich sehen zu können
    Hier erfährst Du wie Du Dich bedanken kannst oder werde jetzt Premium Mitglied ab einer Spende von 5€ und erhalte sofortigen Zugriff auf den Downloadbereich!





    Geändert von 00Ryuji00 (27. May 2016 um 13:28 Uhr) Grund: folge 9-12 hinzugefügt somit komplett

    [Links sind nur für registrierte und aktivierte Nutzer sichtbar. Klicke hier um dich zu registrieren.]

    Ich wäre allen sehr dankbar, die mir gravierende Fehler in meinen Releases per PN melden

  4. 36 Benutzer sagen Danke:

    a99misterx99 (8. December 2015),Ace360 (18. November 2015),adinin (18. November 2015),Akulti (24. January 2016),Angel86 (15. March 2016),Blackdragon1702 (30. January 2016),Chillasedi (25. January 2016),coldbears48 (29. November 2015),eraz (9. November 2015),IBlackstar (8. January 2016),Ignasum (5. November 2015),IshiFuroito (29. December 2015),Kalchi (24. July 2016),Kippei (6. December 2015),KrachbumAlex (27. December 2015),LawMugen (3. December 2015),Max13493 (11. October 2015),Megamani (5. November 2015),mib00 (18. October 2015),Mr.Shit (11. May 2016),Murtagks (20. November 2015),RapidKill (29. December 2015),rekiznuh1 (3. December 2015),Rikune (28. May 2016),Ronae (24. November 2015),Sirius (27. October 2015),SnowCat (4. June 2016),SONNYxq (11. October 2015),Sora (13. October 2016),Suigetsu (5. November 2015),tmcx (8. July 2016),tokyodrift (18. October 2015),Wakaba (5. September 2016),Windwusel (5. November 2015),YamiXGhost (5. November 2015),Zap (14. October 2015)

  5. #3
    Uploader Avatar von Filbo11
    Registriert seit
    Jan 2015
    Beiträge
    931
    Punkte
    17.281
    Errungenschaften:
    TomodachisErste Gruppe1 Jahr registriertCreated Album picturesTagger First Class

    AW: Comet Lucifer [Jap-Dub][Ger-Sub][720p][8Bit/10Bit][WebRip] - Chinurarete-Subs

    folge 2 hinzugefügt

    [Links sind nur für registrierte und aktivierte Nutzer sichtbar. Klicke hier um dich zu registrieren.]

    Ich wäre allen sehr dankbar, die mir gravierende Fehler in meinen Releases per PN melden

  6. 2 Benutzer sagen Danke:

    Blackdragon1702 (30. January 2016),Sora (13. October 2016)

  7. #4
    Uploader Avatar von Filbo11
    Registriert seit
    Jan 2015
    Beiträge
    931
    Punkte
    17.281
    Errungenschaften:
    TomodachisErste Gruppe1 Jahr registriertCreated Album picturesTagger First Class

    AW: Comet Lucifer [Jap-Dub][Ger-Sub][720p][8Bit/10Bit][WebRip] - Chinurarete-Subs

    folge 3 hinzugefügt

    [Links sind nur für registrierte und aktivierte Nutzer sichtbar. Klicke hier um dich zu registrieren.]

    Ich wäre allen sehr dankbar, die mir gravierende Fehler in meinen Releases per PN melden

  8. 2 Benutzer sagen Danke:

    Blackdragon1702 (30. January 2016),Sora (13. October 2016)

  9. #5
    Uploader Avatar von Filbo11
    Registriert seit
    Jan 2015
    Beiträge
    931
    Punkte
    17.281
    Errungenschaften:
    TomodachisErste Gruppe1 Jahr registriertCreated Album picturesTagger First Class

    AW: Comet Lucifer [Jap-Dub][Ger-Sub][720p][8Bit/10Bit][WebRip] - Chinurarete-Subs

    folge 4 hinzugefügt

    [Links sind nur für registrierte und aktivierte Nutzer sichtbar. Klicke hier um dich zu registrieren.]

    Ich wäre allen sehr dankbar, die mir gravierende Fehler in meinen Releases per PN melden

  10. 3 Benutzer sagen Danke:

    Blackdragon1702 (30. January 2016),eraz (9. November 2015),Sora (13. October 2016)

  11. #6
    Uploader Avatar von Filbo11
    Registriert seit
    Jan 2015
    Beiträge
    931
    Punkte
    17.281
    Errungenschaften:
    TomodachisErste Gruppe1 Jahr registriertCreated Album picturesTagger First Class

    AW: Comet Lucifer [Jap-Dub][Ger-Sub][720p][8Bit/10Bit][WebRip] - Chinurarete-Subs

    folge 5 hinzugefügt

    [Links sind nur für registrierte und aktivierte Nutzer sichtbar. Klicke hier um dich zu registrieren.]

    Ich wäre allen sehr dankbar, die mir gravierende Fehler in meinen Releases per PN melden

  12. 2 Benutzer sagen Danke:

    Blackdragon1702 (30. January 2016),Sora (13. October 2016)

  13. #7
    Uploader Avatar von Filbo11
    Registriert seit
    Jan 2015
    Beiträge
    931
    Punkte
    17.281
    Errungenschaften:
    TomodachisErste Gruppe1 Jahr registriertCreated Album picturesTagger First Class

    AW: Comet Lucifer [Jap-Dub][Ger-Sub][720p][8Bit/10Bit][WebRip] - Chinurarete-Subs

    folge 6 hinzugefügt

    [Links sind nur für registrierte und aktivierte Nutzer sichtbar. Klicke hier um dich zu registrieren.]

    Ich wäre allen sehr dankbar, die mir gravierende Fehler in meinen Releases per PN melden

  14. 2 Benutzer sagen Danke:

    Blackdragon1702 (30. January 2016),Sora (13. October 2016)

  15. #8
    Uploader Avatar von Filbo11
    Registriert seit
    Jan 2015
    Beiträge
    931
    Punkte
    17.281
    Errungenschaften:
    TomodachisErste Gruppe1 Jahr registriertCreated Album picturesTagger First Class

    AW: Comet Lucifer [Jap-Dub][Ger-Sub][720p][8Bit/10Bit][WebRip] - Chinurarete-Subs

    folge 7 hinzugefügt

    [Links sind nur für registrierte und aktivierte Nutzer sichtbar. Klicke hier um dich zu registrieren.]

    Ich wäre allen sehr dankbar, die mir gravierende Fehler in meinen Releases per PN melden

  16. 3 Benutzer sagen Danke:

    Blackdragon1702 (30. January 2016),eraz (22. November 2015),Sora (13. October 2016)

  17. #9
    Uploader Avatar von Filbo11
    Registriert seit
    Jan 2015
    Beiträge
    931
    Punkte
    17.281
    Errungenschaften:
    TomodachisErste Gruppe1 Jahr registriertCreated Album picturesTagger First Class

    AW: Comet Lucifer [Jap-Dub][Ger-Sub][720p][8Bit/10Bit][WebRip] - Chinurarete-Subs

    folge 8 hinzugefügt

    [Links sind nur für registrierte und aktivierte Nutzer sichtbar. Klicke hier um dich zu registrieren.]

    Ich wäre allen sehr dankbar, die mir gravierende Fehler in meinen Releases per PN melden

  18. 3 Benutzer sagen Danke:

    Blackdragon1702 (30. January 2016),eraz (29. November 2015),Sora (13. October 2016)

  19. #10
    United we Stand Avatar von 00Ryuji00
    Registriert seit
    Oct 2012
    Beiträge
    3.902
    Punkte
    99.909
    Errungenschaften:
    TomodachisGang LeaderHikikomoriTagger Amateur50000 Erfahrungspunkte

    AW: Comet Lucifer [Jap-Dub][Ger-Sub][720p][8Bit/10Bit][WebRip] - Chinurarete-Subs

    Komplett ~
    Geändert von 00Ryuji00 (24. January 2016 um 13:49 Uhr)
    !!!Alle Anliegen bezüglich Uploads werden nur mit direktem Threadlink zum Angebot bearbeitet!!!

    Re-Uploadanfragen nur per PN - Ihr könnt mir auch Listen schicken

    Re-Uploads erfolgen meist innerhalb 24h, kann aber auch bis zu 7 Tage dauern

    [Links sind nur für registrierte und aktivierte Nutzer sichtbar. Klicke hier um dich zu registrieren.] | [Links sind nur für registrierte und aktivierte Nutzer sichtbar. Klicke hier um dich zu registrieren.] | >[Links sind nur für registrierte und aktivierte Nutzer sichtbar. Klicke hier um dich zu registrieren.]<
    [Links sind nur für registrierte und aktivierte Nutzer sichtbar. Klicke hier um dich zu registrieren.]

  20. 4 Benutzer sagen Danke:

    Blackdragon1702 (30. January 2016),OtakuTim (23. January 2016),SONNYxq (13. October 2016),Sora (13. October 2016)

  21. #11
    United we Stand Avatar von 00Ryuji00
    Registriert seit
    Oct 2012
    Beiträge
    3.902
    Punkte
    99.909
    Errungenschaften:
    TomodachisGang LeaderHikikomoriTagger Amateur50000 Erfahrungspunkte

    AW: Comet Lucifer [Jap-Dub][Ger-Sub][720p][8Bit/10Bit][WebRip] - Chinurarete-Subs

    Update: Dateien auf Wunsch wieder online.
    !!!Alle Anliegen bezüglich Uploads werden nur mit direktem Threadlink zum Angebot bearbeitet!!!

    Re-Uploadanfragen nur per PN - Ihr könnt mir auch Listen schicken

    Re-Uploads erfolgen meist innerhalb 24h, kann aber auch bis zu 7 Tage dauern

    [Links sind nur für registrierte und aktivierte Nutzer sichtbar. Klicke hier um dich zu registrieren.] | [Links sind nur für registrierte und aktivierte Nutzer sichtbar. Klicke hier um dich zu registrieren.] | >[Links sind nur für registrierte und aktivierte Nutzer sichtbar. Klicke hier um dich zu registrieren.]<
    [Links sind nur für registrierte und aktivierte Nutzer sichtbar. Klicke hier um dich zu registrieren.]

  22. 1 Benutzer sagt Danke:

    Sora (13. October 2016)

Lesezeichen

Berechtigungen

  • Neue Themen erstellen: Nein
  • Themen beantworten: Nein
  • Anhänge hochladen: Nein
  • Beiträge bearbeiten: Nein
  •  

1 2 3 4 5 6 7 8 9 10 11 12 13 14 15 16 17 18 19 20 21 22 23 24 25 26 27 28 29 30 31 32 33 34 35 36 37 38 39 40 41 42 43 44 45 46 47 48 49 50 51 52 53 54 55 56 57 58 59 60 61 62 63 64 65 66 67 68 69 70 71 72 73 74 75 76 77 78 79 80 81 82 83 84 85 86 87 88 89 90 91 92 93 94 95 96 97 98 99 100 101 102 103 104 105 106 107 108 109 110 111 112 113 114 115 116 117 118 119 120 121 122 123 124 125 126 127 128 129 130 131 132 133 134 135 136 137 138 139 140 141 142 143 144 145 146 147 148 149 150 151 152 153 154 155 156 157 158