Ergebnis 1 bis 2 von 2

Thema: Dragon Ball Super [Jap-Dub][Ger-Sub][720p][HDTV]

Dieser Thread wurde noch nicht bewertet. Bewerte ihn doch, wenn er dir gefällt!
  1. #1
    United we Stand Avatar von 00Ryuji00
    Registriert seit
    Oct 2012
    Beiträge
    3.902
    Punkte
    100.019
    Errungenschaften:
    TomodachisGang LeaderHikikomoriTagger Amateur50000 Erfahrungspunkte

    Dragon Ball Super [Jap-Dub][Ger-Sub][720p][HDTV]


    Dragon Ball Super
    ドラゴンボール超
    Dragon Ball Chou






    Kurzbeschreibung:
    ragon Ball Super wird die einzigartigen Charaktere des Franchises wiedervereinigen, die Nachwirkungen von Gokus heftigem Kampf gegen Majin Buu behandeln, und zeigen, wie er versucht den zerbrechlichen Frieden auf der Erde zu erhalten. Unter Beaufsichtigung des originalen Dragon Ball-Schöpfers Akira Toriyama und in Kooperation mit Fuji TV wird Dragon Ball Super an seine historische Vergangenheit anknüpfen, um ein auffallendes neues Universum, das Fans einlädt und neue Zuschauer dazugewinnt, zu erschaffen.


    Sprache: Japanisch
    Untertitel: Deutsch
    Episodenanzahl: 003/XXX
    Format: .mp4
    Auflösung: 720p (16:9)
    Codec: x264
    Gruppe: DB-Tube
    Hoster: Share-Online ; Uploaded


    Datei Info:
    Spoiler

    Code:
    
    
    Format                                   : MPEG-4
    Format profile                           : Base Media / Version 2
    Codec ID                                 : mp42
    File size                                : 236 MiB
    Duration                                 : 23mn 24s
    Overall bit rate mode                    : Variable
    Overall bit rate                         : 1 412 Kbps
    Encoded date                             : UTC 2015-07-05 15:47:10
    Tagged date                              : UTC 2015-07-05 15:47:10
    
    Video
    ID                                       : 201
    Format                                   : AVC
    Format/Info                              : Advanced Video Codec
    Format profile                           : [email protected]
    Format settings, CABAC                   : Yes
    Format settings, ReFrames                : 4 frames
    Codec ID                                 : avc1
    Codec ID/Info                            : Advanced Video Coding
    Duration                                 : 23mn 24s
    Bit rate                                 : 1 216 Kbps
    Maximum bit rate                         : 6 121 Kbps
    Width                                    : 1 280 pixels
    Height                                   : 720 pixels
    Display aspect ratio                     : 16:9
    Frame rate mode                          : Constant
    Frame rate                               : 29.970 fps
    Color space                              : YUV
    Chroma subsampling                       : 4:2:0
    Bit depth                                : 8 bits
    Scan type                                : Progressive
    Bits/(Pixel*Frame)                       : 0.044
    Stream size                              : 204 MiB (86%)
    Writing library                          : x264 core 132
    Encoding settings                        : cabac=1 / ref=2 / deblock=1:0:0 / analyse=0x3:0x113 / me=hex / subme=6 / psy=1 / psy_rd=1.00:0.00 / mixed_ref=1 / me_range=16 / chroma_me=1 / trellis=1 / 8x8dct=1 / cqm=0 / deadzone=21,11 / fast_pskip=1 / chroma_qp_offset=-2 / threads=36 / lookahead_threads=5 / sliced_threads=0 / nr=0 / decimate=1 / interlaced=0 / bluray_compat=0 / constrained_intra=0 / bframes=3 / b_pyramid=2 / b_adapt=1 / b_bias=0 / direct=1 / weightb=1 / open_gop=0 / weightp=1 / keyint=60 / keyint_min=6 / scenecut=40 / intra_refresh=0 / rc_lookahead=30 / rc=crf / mbtree=1 / crf=24.0 / qcomp=0.60 / qpmin=0 / qpmax=69 / qpstep=4 / ip_ratio=1.40 / aq=1:1.00
    Tagged date                              : UTC 2015-07-05 15:47:14
    
    Audio
    ID                                       : 101
    Format                                   : AAC
    Format/Info                              : Advanced Audio Codec
    Format profile                           : LC
    Codec ID                                 : 40
    Duration                                 : 23mn 24s
    Bit rate mode                            : Variable
    Bit rate                                 : 192 Kbps
    Maximum bit rate                         : 211 Kbps
    Channel count                            : 2 channels
    Channel positions                        : Front: L R
    Sampling rate                            : 44.1 KHz
    Compression mode                         : Lossy
    Stream size                              : 32.2 MiB (14%)
    Encoded date                             : UTC 2015-07-05 15:47:13
    Tagged date                              : UTC 2015-07-05 15:47:14
    
    





    Geschützter Bereich - Bedanke dich beim Poster, um den Bereich sehen zu können
    Hier erfährst Du wie Du Dich bedanken kannst oder werde jetzt Premium Mitglied ab einer Spende von 5€ und erhalte sofortigen Zugriff auf den Downloadbereich!
    !!!Alle Anliegen bezüglich Uploads werden nur mit direktem Threadlink zum Angebot bearbeitet!!!

    Re-Uploadanfragen nur per PN - Ihr könnt mir auch Listen schicken

    Re-Uploads erfolgen meist innerhalb 24h, kann aber auch bis zu 7 Tage dauern

    [Links sind nur für registrierte und aktivierte Nutzer sichtbar. Klicke hier um dich zu registrieren.] | [Links sind nur für registrierte und aktivierte Nutzer sichtbar. Klicke hier um dich zu registrieren.] | >[Links sind nur für registrierte und aktivierte Nutzer sichtbar. Klicke hier um dich zu registrieren.]<
    [Links sind nur für registrierte und aktivierte Nutzer sichtbar. Klicke hier um dich zu registrieren.]

  2. 60 Benutzer sagen Danke:

    Anzeigen

    $$conan$$ (25. July 2015),BlackGoldSaw (12. July 2015),CKSI (12. July 2015),Cloud002 (20. July 2015),curse2302 (20. July 2015),Dark Justice (12. July 2015),data_ghoul (13. July 2015),david21 (20. July 2015),Drezzo (20. July 2015),dzeko (12. July 2015),eraz (13. July 2015),Evilsensei (20. July 2015),falkenauge11 (13. July 2015),Flyer (13. July 2015),Frag0042 (12. July 2015),Freezy (21. July 2015),FreshMagma (13. July 2015),Gatti1983 (13. July 2015),Goki.Grokus (13. July 2015),GutiHaz_14 (14. July 2015),IQcrack (13. July 2015),Junkmaster (12. July 2015),Kevin04 (22. July 2015),killer7977 (9. January 2016),KingDing15 (13. July 2015),Kirdock (13. July 2015),Loki92 (12. July 2015),manuel4193 (12. July 2015),masta.ace (23. July 2015),Megamani (12. July 2015),mic.spirit (13. July 2015),midnighter (16. July 2015),Morbi2k15 (12. July 2015),Nanatzusaya (23. July 2015),natzu0 (12. July 2015),Newz2014 (12. July 2015),Nyarlathothep (13. July 2015),OokamiHoro (14. December 2015),OtakuTim (12. July 2015),pirat89 (20. July 2015),prodektor (13. July 2015),ra-re (10. February 2016),Scypher (12. July 2015),Sephi66 (12. July 2015),Sexmann (13. July 2015),Shadowa (13. July 2015),Shi No Ryu (20. July 2015),Smo (25. July 2015),sonic1992j (22. July 2015),SONNYxq (13. July 2015),Sporrdig (13. July 2015),sportfreak tim (20. July 2015),ter_Kapitalist (17. July 2015),Tidus18 (14. July 2015),Vice (18. July 2015),volker027 (13. July 2015),Windwusel (13. July 2015),xEssentiaLx (25. July 2015),Xisenable (20. July 2015),YamiXGhost (12. July 2015)

  3. #2
    United we Stand Avatar von 00Ryuji00
    Registriert seit
    Oct 2012
    Beiträge
    3.902
    Punkte
    100.019
    Errungenschaften:
    TomodachisGang LeaderHikikomoriTagger Amateur50000 Erfahrungspunkte

    AW: Dragon Ball Super [Jap-Dub][Ger-Sub][720p][HDTV]

    Update: Folge 3 hinzugefügt.
    !!!Alle Anliegen bezüglich Uploads werden nur mit direktem Threadlink zum Angebot bearbeitet!!!

    Re-Uploadanfragen nur per PN - Ihr könnt mir auch Listen schicken

    Re-Uploads erfolgen meist innerhalb 24h, kann aber auch bis zu 7 Tage dauern

    [Links sind nur für registrierte und aktivierte Nutzer sichtbar. Klicke hier um dich zu registrieren.] | [Links sind nur für registrierte und aktivierte Nutzer sichtbar. Klicke hier um dich zu registrieren.] | >[Links sind nur für registrierte und aktivierte Nutzer sichtbar. Klicke hier um dich zu registrieren.]<
    [Links sind nur für registrierte und aktivierte Nutzer sichtbar. Klicke hier um dich zu registrieren.]

Lesezeichen

Berechtigungen

  • Neue Themen erstellen: Nein
  • Themen beantworten: Nein
  • Anhänge hochladen: Nein
  • Beiträge bearbeiten: Nein
  •  

1 2 3 4 5 6 7 8 9 10 11 12 13 14 15 16 17 18 19 20 21 22 23 24 25 26 27 28 29 30 31 32 33 34 35 36 37 38 39 40 41 42 43 44 45 46 47 48 49 50 51 52 53 54 55 56 57 58 59 60 61 62 63 64 65 66 67 68 69 70 71 72 73 74 75 76 77 78 79 80 81 82 83 84 85 86 87 88 89 90 91 92 93 94 95 96 97 98 99 100 101 102 103 104 105 106 107 108 109 110 111 112 113 114 115 116 117 118 119 120 121 122 123 124 125 126 127 128 129 130 131 132 133 134 135 136 137 138 139 140 141 142 143 144 145 146 147 148 149 150 151 152 153 154 155 156 157 158