Ergebnis 1 bis 2 von 2

Thema: Dragonball Z Kai [Laufend][Ger-Jap-Dub][Ger-Sub][720p/1080p][BluRay] - STARS

Dieser Thread wurde noch nicht bewertet. Bewerte ihn doch, wenn er dir gefällt!
  1. #1
    Kami-sama Avatar von galudo
    Registriert seit
    Mar 2015
    Beiträge
    1.371
    Punkte
    26.032
    Errungenschaften:
    TomodachisTagger ProfiHyperaktivSenpaiGang Leader

    Dragonball Z Kai [Laufend][Ger-Jap-Dub][Ger-Sub][720p/1080p][BluRay] - STARS

    Dragon Ball Kai
    Dragonball Z Kai



    Kurzbeschreibung
    Eine japanische, hochaufgelöste Fassung, die digital überarbeitetes Videomaterial enthält sowie eine neue Synchronfassung, die zum 20-jährigen Jubiläum der Serie aufgenommen wurde. Dabei wurde die Serie in mehreren Aspekten überarbeitet und folgt nun, unter dem Namen "Dragonball Kai", der Handlung des Mangas detailliert, die wiederum nicht durch Fillerepisoden unterbrochen wird.

    Hierbei handelt es sich um die neue Synchronisation von Kazé.
    Format: MKV
    Sprache: Japanisch, Deutsch
    Untertitel: Deutsch
    Genre: Action, Adventure, Comedy
    Größe bei 720p: ~ 550 MB pro Folge | Gesamtgröße: 33,01 GB
    Größe bei 1080p: ~ 900 MB pro Folge | Gesamtgröße: 56,71 GB
    Dauer: ~ 23 Minuten
    Jahr: 2009 - 2011
    Video: 720p & 1080p
    Source: BluRay
    Subgroup / Releasegroup: Kazé / STARS

    Hoster: Share-Online | Uploaded
    Passwort: siehe unten
    Onlinestatus: HD|FHD


    Datei-Info
    MediaInfo
    720p
    Code:
    General
    Unique ID                      : 237533838181723408009062191090611260189 (0xB2B35A69BD0DB8DA88FF5AC094980B1D)
    Complete name                  : Dragonball.Z.Kai.E001.Der.Kampf.beginnt.720p-STARS.mkv
    Format                         : Matroska
    Format version                 : Version 4 / Version 2
    File size                      : 529 MiB
    Duration                       : 23mn 5s
    Overall bit rate               : 3 202 Kbps
    Movie name                     : DRAGONBALL Z KAI - E001 - DER KAMPF BEGINNT - 720P - STARS
    Encoded date                   : UTC 2015-10-30 22:19:17
    Writing application            : mkvmerge v6.1.0 ('Old Devil') built on Mar  2 2013 14:32:37
    Writing library                : libebml v1.3.0 + libmatroska v1.4.0
    
    Video
    ID                             : 1
    Format                         : AVC
    Format/Info                    : Advanced Video Codec
    Format profile                 : [email protected]
    Format settings, CABAC         : Yes
    Format settings, ReFrames      : 5 frames
    Codec ID                       : V_MPEG4/ISO/AVC
    Duration                       : 23mn 5s
    Bit rate                       : 2 754 Kbps
    Width                          : 1 280 pixels
    Height                         : 720 pixels
    Display aspect ratio           : 16:9
    Frame rate mode                : Constant
    Frame rate                     : 23.976 fps
    Color space                    : YUV
    Chroma subsampling             : 4:2:0
    Bit depth                      : 8 bits
    Scan type                      : Progressive
    Bits/(Pixel*Frame)             : 0.125
    Stream size                    : 455 MiB (86%)
    Title                          : DRAGONBALL Z KAI - E001 - DER KAMPF BEGINNT - 720P - STARS
    Writing library                : x264 core 148 r2638 7599210
    Encoding settings              : cabac=1 / ref=5 / deblock=1:0:0 / analyse=0x3:0x133 / me=umh / subme=7 / psy=1 / psy_rd=1.00:0.00 / mixed_ref=1 / me_range=16 / chroma_me=1 / trellis=1 / 8x8dct=1 / cqm=0 / deadzone=21,11 / fast_pskip=0 / chroma_qp_offset=-2 / threads=12 / lookahead_threads=2 / sliced_threads=0 / nr=0 / decimate=1 / interlaced=0 / bluray_compat=0 / constrained_intra=0 / bframes=3 / b_pyramid=2 / b_adapt=1 / b_bias=0 / direct=1 / weightb=1 / open_gop=0 / weightp=1 / keyint=250 / keyint_min=23 / scenecut=40 / intra_refresh=0 / rc_lookahead=40 / rc=crf / mbtree=1 / crf=20.0 / qcomp=0.60 / qpmin=0 / qpmax=69 / qpstep=4 / ip_ratio=1.40 / aq=1:1.00
    Default                        : Yes
    Forced                         : Yes
    
    Audio #1
    ID                             : 2
    Format                         : AC-3
    Format/Info                    : Audio Coding 3
    Mode extension                 : CM (complete main)
    Format settings, Endianness    : Big
    Codec ID                       : A_AC3
    Duration                       : 23mn 5s
    Bit rate mode                  : Constant
    Bit rate                       : 192 Kbps
    Channel(s)                     : 2 channels
    Channel positions              : Front: L R
    Sampling rate                  : 48.0 KHz
    Compression mode               : Lossy
    Stream size                    : 31.7 MiB (6%)
    Title                          : GER - AC3
    Language                       : German
    Default                        : Yes
    Forced                         : Yes
    
    Audio #2
    ID                             : 3
    Format                         : AC-3
    Format/Info                    : Audio Coding 3
    Mode extension                 : CM (complete main)
    Format settings, Endianness    : Big
    Codec ID                       : A_AC3
    Duration                       : 23mn 5s
    Bit rate mode                  : Constant
    Bit rate                       : 192 Kbps
    Channel(s)                     : 2 channels
    Channel positions              : Front: L R
    Sampling rate                  : 48.0 KHz
    Compression mode               : Lossy
    Stream size                    : 31.7 MiB (6%)
    Title                          : JPN - AC3
    Language                       : Japanese
    Default                        : No
    Forced                         : No
    
    Text #1
    ID                             : 4
    Format                         : UTF-8
    Codec ID                       : S_TEXT/UTF8
    Codec ID/Info                  : UTF-8 Plain Text
    Title                          : GER - FORCED
    Language                       : German
    Default                        : Yes
    Forced                         : Yes
    
    Text #2
    ID                             : 5
    Format                         : UTF-8
    Codec ID                       : S_TEXT/UTF8
    Codec ID/Info                  : UTF-8 Plain Text
    Title                          : GER - SUBS
    Language                       : German
    Default                        : No
    Forced                         : No
    
    1080p
    Code:
    General
    Unique ID                      : 236939103314472289366889148154409764886 (0xB240CFB85DD64C54B74BAF45E3E1C816)
    Complete name                  : Dragonball.Z.Kai.E001.Der.Kampf.beginnt.1080p-STARS.mkv
    Format                         : Matroska
    Format version                 : Version 4 / Version 2
    File size                      : 870 MiB
    Duration                       : 23mn 5s
    Overall bit rate               : 5 269 Kbps
    Movie name                     : DRAGONBALL Z KAI - E001 - DER KAMPF BEGINNT - 1080P - STARS
    Encoded date                   : UTC 2015-10-31 00:04:22
    Writing application            : mkvmerge v6.1.0 ('Old Devil') built on Mar  2 2013 14:32:37
    Writing library                : libebml v1.3.0 + libmatroska v1.4.0
    
    Video
    ID                             : 1
    Format                         : AVC
    Format/Info                    : Advanced Video Codec
    Format profile                 : [email protected]
    Format settings, CABAC         : Yes
    Format settings, ReFrames      : 4 frames
    Codec ID                       : V_MPEG4/ISO/AVC
    Duration                       : 23mn 5s
    Bit rate                       : 4 780 Kbps
    Width                          : 1 920 pixels
    Height                         : 1 080 pixels
    Display aspect ratio           : 16:9
    Frame rate mode                : Constant
    Frame rate                     : 23.976 fps
    Color space                    : YUV
    Chroma subsampling             : 4:2:0
    Bit depth                      : 8 bits
    Scan type                      : Progressive
    Bits/(Pixel*Frame)             : 0.096
    Stream size                    : 790 MiB (91%)
    Title                          : DRAGONBALL Z KAI - E001 - DER KAMPF BEGINNT - 1080P - STARS
    Writing library                : x264 core 148 r2638 7599210
    Encoding settings              : cabac=1 / ref=4 / deblock=1:0:0 / analyse=0x3:0x133 / me=umh / subme=7 / psy=1 / psy_rd=1.00:0.00 / mixed_ref=1 / me_range=16 / chroma_me=1 / trellis=1 / 8x8dct=1 / cqm=0 / deadzone=21,11 / fast_pskip=0 / chroma_qp_offset=-2 / threads=12 / lookahead_threads=2 / sliced_threads=0 / nr=0 / decimate=1 / interlaced=0 / bluray_compat=0 / constrained_intra=0 / bframes=3 / b_pyramid=2 / b_adapt=1 / b_bias=0 / direct=1 / weightb=1 / open_gop=0 / weightp=1 / keyint=250 / keyint_min=23 / scenecut=40 / intra_refresh=0 / rc_lookahead=40 / rc=crf / mbtree=1 / crf=22.0 / qcomp=0.60 / qpmin=0 / qpmax=69 / qpstep=4 / ip_ratio=1.40 / aq=1:1.00
    Default                        : Yes
    Forced                         : Yes
    
    Audio #1
    ID                             : 2
    Format                         : AC-3
    Format/Info                    : Audio Coding 3
    Mode extension                 : CM (complete main)
    Format settings, Endianness    : Big
    Codec ID                       : A_AC3
    Duration                       : 23mn 5s
    Bit rate mode                  : Constant
    Bit rate                       : 192 Kbps
    Channel(s)                     : 2 channels
    Channel positions              : Front: L R
    Sampling rate                  : 48.0 KHz
    Compression mode               : Lossy
    Stream size                    : 31.7 MiB (4%)
    Title                          : GER - AC3
    Language                       : German
    Default                        : Yes
    Forced                         : Yes
    
    Audio #2
    ID                             : 3
    Format                         : AC-3
    Format/Info                    : Audio Coding 3
    Mode extension                 : CM (complete main)
    Format settings, Endianness    : Big
    Codec ID                       : A_AC3
    Duration                       : 23mn 5s
    Bit rate mode                  : Constant
    Bit rate                       : 192 Kbps
    Channel(s)                     : 2 channels
    Channel positions              : Front: L R
    Sampling rate                  : 48.0 KHz
    Compression mode               : Lossy
    Stream size                    : 31.7 MiB (4%)
    Title                          : JPN - AC3
    Language                       : Japanese
    Default                        : No
    Forced                         : No
    
    Text #1
    ID                             : 4
    Format                         : UTF-8
    Codec ID                       : S_TEXT/UTF8
    Codec ID/Info                  : UTF-8 Plain Text
    Title                          : GER - FORCED
    Language                       : German
    Default                        : Yes
    Forced                         : Yes
    
    Text #2
    ID                             : 5
    Format                         : UTF-8
    Codec ID                       : S_TEXT/UTF8
    Codec ID/Info                  : UTF-8 Plain Text
    Title                          : GER - SUBS
    Language                       : German
    Default                        : No
    Forced                         : No


    Folgen 69 / 97 online
    Folgen einzeln ladbar



    || Download & Passwort ||


    Geschützter Bereich - Bedanke dich beim Poster, um den Bereich sehen zu können
    Hier erfährst Du wie Du Dich bedanken kannst oder werde jetzt Premium Mitglied ab einer Spende von 5€ und erhalte sofortigen Zugriff auf den Downloadbereich!

    Weiteres von Dragon Ball:
    [Links sind nur für registrierte und aktivierte Nutzer sichtbar. Klicke hier um dich zu registrieren.]
    [Links sind nur für registrierte und aktivierte Nutzer sichtbar. Klicke hier um dich zu registrieren.]
    [Links sind nur für registrierte und aktivierte Nutzer sichtbar. Klicke hier um dich zu registrieren.]
    [Links sind nur für registrierte und aktivierte Nutzer sichtbar. Klicke hier um dich zu registrieren.]
    [Links sind nur für registrierte und aktivierte Nutzer sichtbar. Klicke hier um dich zu registrieren.]
    [Links sind nur für registrierte und aktivierte Nutzer sichtbar. Klicke hier um dich zu registrieren.]
    [Links sind nur für registrierte und aktivierte Nutzer sichtbar. Klicke hier um dich zu registrieren.]
    [Links sind nur für registrierte und aktivierte Nutzer sichtbar. Klicke hier um dich zu registrieren.]

    Geändert von galudo (28. November 2016 um 03:19 Uhr) Grund: Folgenupdate
    SUPPORT UND REUP ANFRAGEN NUR >> [Links sind nur für registrierte und aktivierte Nutzer sichtbar. Klicke hier um dich zu registrieren.] <<
    Bitte IMMER den Thread-Link mitschicken.

  2. 11 Benutzer sagen Danke:

    Baschti1989 (25. August 2016),Jukka (2. October 2016),lazius (17. November 2016),midnighter (5. September 2016),Mightyberg (30. September 2016),Refficko (8. November 2016),RutenRudi (6. September 2016),SnowboardRED (27. November 2016),thedarkone777 (29. November 2016),Vexz (5. September 2016),Windwusel (25. August 2016)

  3. #2
    Kami-sama Avatar von galudo
    Registriert seit
    Mar 2015
    Beiträge
    1.371
    Punkte
    26.032
    Errungenschaften:
    TomodachisTagger ProfiHyperaktivSenpaiGang Leader

    AW: Dragonball Z Kai [Laufend][Ger-Jap-Dub][Ger-Sub][720p/1080p][BluRay] - STARS

    Episoden 55 bis 69 Online
    SUPPORT UND REUP ANFRAGEN NUR >> [Links sind nur für registrierte und aktivierte Nutzer sichtbar. Klicke hier um dich zu registrieren.] <<
    Bitte IMMER den Thread-Link mitschicken.

Stichworte

Lesezeichen

Berechtigungen

  • Neue Themen erstellen: Nein
  • Themen beantworten: Nein
  • Anhänge hochladen: Nein
  • Beiträge bearbeiten: Nein
  •  

1 2 3 4 5 6 7 8 9 10 11 12 13 14 15 16 17 18 19 20 21 22 23 24 25 26 27 28 29 30 31 32 33 34 35 36 37 38 39 40 41 42 43 44 45 46 47 48 49 50 51 52 53 54 55 56 57 58 59 60 61 62 63 64 65 66 67 68 69 70 71 72 73 74 75 76 77 78 79 80 81 82 83 84 85 86 87 88 89 90 91 92 93 94 95 96 97 98 99 100 101 102 103 104 105 106 107 108 109 110 111 112 113 114 115 116 117 118 119 120 121 122 123 124 125 126 127 128 129 130 131 132 133 134 135 136 137 138 139 140 141 142 143 144 145 146 147 148 149 150 151 152 153 154 155 156 157 158