Ergebnis 1 bis 2 von 2

Thema: Fate/Kaleid Liner Prisma Illya + OVA [Jap-Dub][Ger-Sub][AC3/PCM][720p/1080p][BluRay] - AST4u

Dieser Thread wurde noch nicht bewertet. Bewerte ihn doch, wenn er dir gefällt!
  1. #1
    United we Stand Avatar von 00Ryuji00
    Registriert seit
    Oct 2012
    Beiträge
    3.902
    Punkte
    100.092
    Errungenschaften:
    TomodachisGang LeaderHikikomoriTagger Amateur50000 Erfahrungspunkte

    Fate/Kaleid Liner Prisma Illya + OVA [Jap-Dub][Ger-Sub][AC3/PCM][720p/1080p][BluRay] - AST4u


    Fate/Kaleid Liner Prisma Illya
    Fate/kaleid liner プリズマ☆イリヤ






    Kurzbeschreibung:
    Zitat Zitat von AniSearch.com
    In dieser alternativen Version von Fate/Stay Night spielt diesmal die zehnjährige Illya die Hauptrolle, die eigentlich ein ganz normales Mädchen ist, das mit ihrem Bruder Shirou zusammenlebt und zur Schule geht. Doch eines Tages taucht bei ihr der Zauberstab Ruby auf, der kurz zuvor seine Meisterin "gefeuert" hat, und macht Illya kurzerhand zu seiner neuen Herrin. Es dauert nicht lange bis ihre Vorgängerin, Rin Tousaka, auf den Plan tritt und Illya dazu überredet, ihr bei einer wichtigen Aufgabe zu helfen. Rin sollte eigentlich mit Hilfe von Ruby magische Karten einsammeln, die die Gestalt der Servants aus Fate/Stay Night angenommen haben. Aber das ist noch nicht alles; kurze Zeit später trifft Illya auf ein anderes Mädchen, das so wie sie unverhofft zu einem Magical Girl geworden ist.


    Spieldauer: 25min
    Genre: Actionkomödie
    Nebengenres: Action, Fantasy, Komödie, Magical Girl
    Jahr: 2013
    Sprache: Japanisch
    Untertitel: Deutsch
    Größe pro Folge: ~430 MiB ~821 MiB ~1.11 GiB
    Episodenanzahl: 10/10 + 1/1
    Format: MKV
    Auflösung: 720p (16:9), 1080p (16:9)
    Videocodec: x264 (AVC)
    Audiocodec: AC-3, PCM
    Releasegruppe: AST4u
    Hoster: Share-Online, Uploaded


    MediaInfo
    720p AC3
    Code:
    
    Format                                   : Matroska
    Format version                           : Version 4 / Version 2
    File size                                : 430 MiB
    Duration                                 : 23mn 40s
    Overall bit rate                         : 2 543 Kbps
    Encoded date                             : UTC 2016-03-21 17:24:54
    Writing application                      : mkvmerge v8.1.0 ('Psychedelic Postcard') 64bit
    Writing library                          : libebml v1.3.1 + libmatroska v1.4.2
    DURATION                                 : 00:23:40.032000000
    NUMBER_OF_FRAMES                         : 44376
    NUMBER_OF_BYTES                          : 79521792
    _STATISTICS_WRITING_APP                  : mkvmerge v8.1.0 ('Psychedelic Postcard') 64bit
    _STATISTICS_WRITING_DATE_UTC             : 2016-03-21 17:24:54
    _STATISTICS_TAGS                         : BPS DURATION NUMBER_OF_FRAMES NUMBER_OF_BYTES
    
    Video
    ID                                       : 2
    Format                                   : AVC
    Format/Info                              : Advanced Video Codec
    Format profile                           : [email protected]
    Format settings, CABAC                   : Yes
    Format settings, ReFrames                : 6 frames
    Codec ID                                 : V_MPEG4/ISO/AVC
    Duration                                 : 23mn 40s
    Bit rate                                 : 2 044 Kbps
    Width                                    : 1 280 pixels
    Height                                   : 720 pixels
    Display aspect ratio                     : 16:9
    Frame rate mode                          : Constant
    Frame rate                               : 23.976 fps
    Color space                              : YUV
    Chroma subsampling                       : 4:2:0
    Bit depth                                : 8 bits
    Scan type                                : Progressive
    Bits/(Pixel*Frame)                       : 0.093
    Stream size                              : 346 MiB (80%)
    Writing library                          : x264 core 148 r2638 7599210
    Encoding settings                        : cabac=1 / ref=6 / deblock=1:1:1 / analyse=0x3:0x113 / me=hex / subme=9 / psy=1 / psy_rd=0.40:0.00 / mixed_ref=1 / me_range=16 / chroma_me=1 / trellis=1 / 8x8dct=1 / cqm=0 / deadzone=21,11 / fast_pskip=1 / chroma_qp_offset=-2 / threads=12 / lookahead_threads=1 / sliced_threads=0 / nr=0 / decimate=1 / interlaced=0 / bluray_compat=0 / constrained_intra=0 / bframes=5 / b_pyramid=2 / b_adapt=2 / b_bias=0 / direct=1 / weightb=1 / open_gop=0 / weightp=2 / keyint=240 / keyint_min=23 / scenecut=40 / intra_refresh=0 / rc_lookahead=40 / rc=crf / mbtree=1 / crf=16.0 / qcomp=0.60 / qpmin=0 / qpmax=69 / qpstep=4 / vbv_maxrate=62500 / vbv_bufsize=78125 / crf_max=0.0 / nal_hrd=none / filler=0 / ip_ratio=1.40 / aq=1:0.60
    Default                                  : Yes
    Forced                                   : No
    
    Audio
    ID                                       : 3
    Format                                   : AC-3
    Format/Info                              : Audio Coding 3
    Mode extension                           : CM (complete main)
    Format settings, Endianness              : Big
    Codec ID                                 : A_AC3
    Duration                                 : 23mn 40s
    Bit rate mode                            : Constant
    Bit rate                                 : 448 Kbps
    Channel(s)                               : 2 channels
    Channel positions                        : Front: L R
    Sampling rate                            : 48.0 KHz
    Compression mode                         : Lossy
    Stream size                              : 75.8 MiB (18%)
    Language                                 : Japanese
    Default                                  : Yes
    Forced                                   : No
    
    Text
    ID                                       : 1
    Format                                   : PGS
    Muxing mode                              : zlib
    Codec ID                                 : S_HDMV/PGS
    Codec ID/Info                            : Picture based subtitle format used on BDs/HD-DVDs
    Default                                  : Yes
    Forced                                   : No
    
    


    1080p AC3
    Code:
    
    Format                                   : Matroska
    Format version                           : Version 4 / Version 2
    File size                                : 821 MiB
    Duration                                 : 23mn 40s
    Overall bit rate                         : 4 849 Kbps
    Encoded date                             : UTC 2016-03-21 16:27:56
    Writing application                      : mkvmerge v8.2.0 ('World of Adventure') 32bit
    Writing library                          : libebml v1.3.1 + libmatroska v1.4.2
    DURATION                                 : 00:23:40.032000000
    NUMBER_OF_FRAMES                         : 44376
    NUMBER_OF_BYTES                          : 79521792
    _STATISTICS_WRITING_APP                  : mkvmerge v8.2.0 ('World of Adventure') 32bit
    _STATISTICS_WRITING_DATE_UTC             : 2016-03-21 16:27:56
    _STATISTICS_TAGS                         : BPS DURATION NUMBER_OF_FRAMES NUMBER_OF_BYTES
    
    Video
    ID                                       : 2
    Format                                   : AVC
    Format/Info                              : Advanced Video Codec
    Format profile                           : [email protected]
    Format settings, CABAC                   : Yes
    Format settings, ReFrames                : 4 frames
    Codec ID                                 : V_MPEG4/ISO/AVC
    Duration                                 : 23mn 40s
    Bit rate                                 : 4 304 Kbps
    Width                                    : 1 920 pixels
    Height                                   : 1 080 pixels
    Display aspect ratio                     : 16:9
    Frame rate mode                          : Constant
    Frame rate                               : 23.976 fps
    Color space                              : YUV
    Chroma subsampling                       : 4:2:0
    Bit depth                                : 8 bits
    Scan type                                : Progressive
    Bits/(Pixel*Frame)                       : 0.087
    Stream size                              : 729 MiB (89%)
    Writing library                          : x264 core 148 r2638 7599210
    Encoding settings                        : cabac=1 / ref=4 / deblock=1:1:1 / analyse=0x3:0x113 / me=hex / subme=9 / psy=1 / psy_rd=0.40:0.00 / mixed_ref=1 / me_range=16 / chroma_me=1 / trellis=1 / 8x8dct=1 / cqm=0 / deadzone=21,11 / fast_pskip=1 / chroma_qp_offset=-2 / threads=12 / lookahead_threads=1 / sliced_threads=0 / nr=0 / decimate=1 / interlaced=0 / bluray_compat=0 / constrained_intra=0 / bframes=5 / b_pyramid=2 / b_adapt=2 / b_bias=0 / direct=1 / weightb=1 / open_gop=0 / weightp=2 / keyint=240 / keyint_min=23 / scenecut=40 / intra_refresh=0 / rc_lookahead=40 / rc=crf / mbtree=1 / crf=16.0 / qcomp=0.60 / qpmin=0 / qpmax=69 / qpstep=4 / vbv_maxrate=62500 / vbv_bufsize=78125 / crf_max=0.0 / nal_hrd=none / filler=0 / ip_ratio=1.40 / aq=1:0.60
    Default                                  : Yes
    Forced                                   : No
    
    Audio
    ID                                       : 3
    Format                                   : AC-3
    Format/Info                              : Audio Coding 3
    Mode extension                           : CM (complete main)
    Format settings, Endianness              : Big
    Codec ID                                 : A_AC3
    Duration                                 : 23mn 40s
    Bit rate mode                            : Constant
    Bit rate                                 : 448 Kbps
    Channel(s)                               : 2 channels
    Channel positions                        : Front: L R
    Sampling rate                            : 48.0 KHz
    Compression mode                         : Lossy
    Stream size                              : 75.8 MiB (9%)
    Language                                 : Japanese
    Default                                  : Yes
    Forced                                   : No
    
    Text
    ID                                       : 1
    Format                                   : PGS
    Muxing mode                              : zlib
    Codec ID                                 : S_HDMV/PGS
    Codec ID/Info                            : Picture based subtitle format used on BDs/HD-DVDs
    Default                                  : Yes
    Forced                                   : No
    
    


    1080p PCM
    Code:
    
    Format                                   : Matroska
    Format version                           : Version 4 / Version 2
    File size                                : 1.11 GiB
    Duration                                 : 23mn 40s
    Overall bit rate                         : 6 706 Kbps
    Encoded date                             : UTC 2016-03-21 16:28:13
    Writing application                      : mkvmerge v8.2.0 ('World of Adventure') 32bit
    Writing library                          : libebml v1.3.1 + libmatroska v1.4.2
    DURATION                                 : 00:23:40.002000000
    NUMBER_OF_FRAMES                         : 34046
    NUMBER_OF_BYTES                          : 778052696
    _STATISTICS_WRITING_APP                  : mkvmerge v8.2.0 ('World of Adventure') 32bit
    _STATISTICS_WRITING_DATE_UTC             : 2016-03-21 16:28:13
    _STATISTICS_TAGS                         : BPS DURATION NUMBER_OF_FRAMES NUMBER_OF_BYTES
    
    Video
    ID                                       : 3
    Format                                   : AVC
    Format/Info                              : Advanced Video Codec
    Format profile                           : [email protected]
    Format settings, CABAC                   : Yes
    Format settings, ReFrames                : 4 frames
    Codec ID                                 : V_MPEG4/ISO/AVC
    Duration                                 : 23mn 40s
    Width                                    : 1 920 pixels
    Height                                   : 1 080 pixels
    Display aspect ratio                     : 16:9
    Frame rate mode                          : Constant
    Frame rate                               : 23.976 fps
    Color space                              : YUV
    Chroma subsampling                       : 4:2:0
    Bit depth                                : 8 bits
    Scan type                                : Progressive
    Writing library                          : x264 core 148 r2638 7599210
    Encoding settings                        : cabac=1 / ref=4 / deblock=1:1:1 / analyse=0x3:0x113 / me=hex / subme=9 / psy=1 / psy_rd=0.40:0.00 / mixed_ref=1 / me_range=16 / chroma_me=1 / trellis=1 / 8x8dct=1 / cqm=0 / deadzone=21,11 / fast_pskip=1 / chroma_qp_offset=-2 / threads=12 / lookahead_threads=1 / sliced_threads=0 / nr=0 / decimate=1 / interlaced=0 / bluray_compat=0 / constrained_intra=0 / bframes=5 / b_pyramid=2 / b_adapt=2 / b_bias=0 / direct=1 / weightb=1 / open_gop=0 / weightp=2 / keyint=240 / keyint_min=23 / scenecut=40 / intra_refresh=0 / rc_lookahead=40 / rc=crf / mbtree=1 / crf=16.0 / qcomp=0.60 / qpmin=0 / qpmax=69 / qpstep=4 / vbv_maxrate=62500 / vbv_bufsize=78125 / crf_max=0.0 / nal_hrd=none / filler=0 / ip_ratio=1.40 / aq=1:0.60
    Default                                  : Yes
    Forced                                   : No
    
    Audio
    ID                                       : 1
    Format                                   : PCM
    Format settings, Endianness              : Big
    Codec ID                                 : A_PCM/INT/BIG
    Duration                                 : 23mn 40s
    Bit rate mode                            : Constant
    Channel(s)                               : 2 channels
    Sampling rate                            : 48.0 KHz
    Bit depth                                : 24 bits
    Default                                  : Yes
    Forced                                   : No
    
    Text
    ID                                       : 2
    Format                                   : PGS
    Muxing mode                              : zlib
    Codec ID                                 : S_HDMV/PGS
    Codec ID/Info                            : Picture based subtitle format used on BDs/HD-DVDs
    Default                                  : Yes
    Forced                                   : No
    
    






    Geschützter Bereich - Bedanke dich beim Poster, um den Bereich sehen zu können
    Hier erfährst Du wie Du Dich bedanken kannst oder werde jetzt Premium Mitglied ab einer Spende von 5€ und erhalte sofortigen Zugriff auf den Downloadbereich!

    [Links sind nur für registrierte und aktivierte Nutzer sichtbar. Klicke hier um dich zu registrieren.]
    !!!Alle Anliegen bezüglich Uploads werden nur mit direktem Threadlink zum Angebot bearbeitet!!!

    Re-Uploadanfragen nur per PN - Ihr könnt mir auch Listen schicken

    Re-Uploads folgen nach Anfrage meist am Wochenende

    [Links sind nur für registrierte und aktivierte Nutzer sichtbar. Klicke hier um dich zu registrieren.] | [Links sind nur für registrierte und aktivierte Nutzer sichtbar. Klicke hier um dich zu registrieren.] | >[Links sind nur für registrierte und aktivierte Nutzer sichtbar. Klicke hier um dich zu registrieren.]<
    [Links sind nur für registrierte und aktivierte Nutzer sichtbar. Klicke hier um dich zu registrieren.]

  2. 59 Benutzer sagen Danke:

    Anzeigen

    Aetherna (19. May 2016),Akio (3. September 2016),Alveus (23. May 2016),BlackMekkor (14. October 2016),Black_ Reaper (5. October 2016),brunsdumm (19. May 2016),chopper23 (19. May 2016),Conopas (20. May 2016),Coolwars (6. July 2016),dzeko (21. October 2016),fabio1221 (29. May 2016),GammaWar (22. September 2016),Ghostraven (19. May 2016),Griever (19. May 2016),haloman10000 (4. August 2016),haltdiefresse (19. May 2016),helloplaya (9. August 2016),Holzmodem (21. September 2016),Ikari-sama (5. December 2016),Jeycop (24. September 2016),Kalchi (28. July 2016),Kartox (24. May 2016),Kenny328 (29. October 2016),KeXiuS (31. May 2016),Kristero (21. July 2016),Manfred28 (19. May 2016),mariko091 (19. May 2016),midnighter (15. June 2016),Miles360 (19. May 2016),Moeppi08 (21. November 2016),Mosh (14. June 2016),Mr.Shit (5. July 2016),MutationACE (20. June 2016),NanaNo7 (19. May 2016),Nanatzusaya (22. September 2016),neocx (21. May 2016),Norandas (26. November 2016),OLI10 (10. October 2016),Owl (6. July 2016),Paachan (21. September 2016),PaDDy92 (19. May 2016),Paraa (8. November 2016),Rin58 (6. July 2016),rinnegan93 (21. November 2016),S4nCh3z (22. May 2016),setugen no ao (19. May 2016),Shirobaka (9. November 2016),SlaughterSlender (14. June 2016),SnowCat (29. May 2016),Tai1988 (19. May 2016),thereverend (26. September 2016),The_Iron (20. May 2016),tompace (19. May 2016),Tschu23 (20. May 2016),Windwusel (19. May 2016),WolfsBlade (19. May 2016),x6100x (24. July 2016),Z3ntus (19. May 2016),Zeichensalat (19. May 2016)

  3. #2
    United we Stand Avatar von 00Ryuji00
    Registriert seit
    Oct 2012
    Beiträge
    3.902
    Punkte
    100.092
    Errungenschaften:
    TomodachisGang LeaderHikikomoriTagger Amateur50000 Erfahrungspunkte

    AW: Fate/Kaleid Liner Prisma Illya + OVA [Jap-Dub][Ger-Sub][AC3/PCM][720p/1080p][BluRay] - AST4u

    Update: Dateien auf Wunsch wieder online.
    !!!Alle Anliegen bezüglich Uploads werden nur mit direktem Threadlink zum Angebot bearbeitet!!!

    Re-Uploadanfragen nur per PN - Ihr könnt mir auch Listen schicken

    Re-Uploads folgen nach Anfrage meist am Wochenende

    [Links sind nur für registrierte und aktivierte Nutzer sichtbar. Klicke hier um dich zu registrieren.] | [Links sind nur für registrierte und aktivierte Nutzer sichtbar. Klicke hier um dich zu registrieren.] | >[Links sind nur für registrierte und aktivierte Nutzer sichtbar. Klicke hier um dich zu registrieren.]<
    [Links sind nur für registrierte und aktivierte Nutzer sichtbar. Klicke hier um dich zu registrieren.]

Lesezeichen

Berechtigungen

  • Neue Themen erstellen: Nein
  • Themen beantworten: Nein
  • Anhänge hochladen: Nein
  • Beiträge bearbeiten: Nein
  •  

1 2 3 4 5 6 7 8 9 10 11 12 13 14 15 16 17 18 19 20 21 22 23 24 25 26 27 28 29 30 31 32 33 34 35 36 37 38 39 40 41 42 43 44 45 46 47 48 49 50 51 52 53 54 55 56 57 58 59 60 61 62 63 64 65 66 67 68 69 70 71 72 73 74 75 76 77 78 79 80 81 82 83 84 85 86 87 88 89 90 91 92 93 94 95 96 97 98 99 100 101 102 103 104 105 106 107 108 109 110 111 112 113 114 115 116 117 118 119 120 121 122 123 124 125 126 127 128 129 130 131 132 133 134 135 136 137 138 139 140 141 142 143 144 145 146 147 148 149 150 151 152 153 154 155 156 157 158