Ergebnis 1 bis 8 von 8

Thema: Gakusen Toshi Asterisk (2016) [Jap-Dub][Ger-Sub][720p][WebRip]-Momokors

Dieser Thread wurde noch nicht bewertet. Bewerte ihn doch, wenn er dir gefällt!
  1. #1
    Kleiner Experte Avatar von ShadowTX
    Registriert seit
    Sep 2014
    Beiträge
    109
    Punkte
    3.703
    Errungenschaften:
    1000 ErfahrungspunkteHikikomori

    Gakusen Toshi Asterisk (2016) [Jap-Dub][Ger-Sub][720p][WebRip]-Momokors



    The Asterisk War II
    学戦都市アスタリスク
    The Asterisk War (2nd Season)


    Videodetails:
    Publisher...............: Peppermint
    Jahr:...................: 2016
    Genre...................: Action, Fantas, Science-Fiction
    Episodenanzahl..........: 12/12
    Container...............: MP4
    Codec...................: AVC
    Format..................: 720p
    Spieldauer..............: 24 Minuten
    Größe pro Folge.........: 300 MB
    Encodet by..............: Momokors
    Hostet by...............: Uploaded,Share-Online

    Audiodetails:
    Sprache............: Japanisch
    Untertitel.........: Deutsch
    Audioformat........: AAC 2.0

    Kurzbeschreibung:
    Zitat Zitat von AniSearch.com
    Nach Invertia, einer Katastrophe, die die ganze Welt veränderte, entstand eine neue Menschenrasse: Die Genestella.
    Ayato ist so ein Genestella und neu in Asterisk, der Stadt auf dem Wasser, in der junge Genestella zur Schule gehen und bei der Festa ihre Kräfte messen. Dem Sieger der Festa winkt die Erfüllung eines Wunsches. Noch nicht einmal richtig in der Schule angekommen, wird Ayato auch schon von einem hübschen Mädchen namens Julis zum Kampf herausgefordert.
    MediaInfo
    Code:
    
    
    General
    Complete name               : Asterisk.War.Season.2.Episode.01.German.Subbed.MP4
    Format                      : MPEG-4
    Format profile              : Base Media / Version 2
    Codec ID                    : mp42 (mp42/mp41/isom/avc1)
    File size                   : 357 MiB
    Duration                    : 23mn 46s
    Overall bit rate mode       : Variable
    Overall bit rate            : 2 100 Kbps
    Encoded date                : UTC 2016-04-01 17:23:39
    Tagged date                 : UTC 2016-04-01 17:23:39
    
    Video
    ID                          : 1
    Format                      : AVC
    Format/Info                 : Advanced Video Codec
    Format profile              : [email protected]
    Format settings, CABAC      : Yes
    Format settings, ReFrames   : 5 frames
    Codec ID                    : avc1
    Codec ID/Info               : Advanced Video Coding
    Duration                    : 23mn 46s
    Bit rate                    : 1 840 Kbps
    Width                       : 1 280 pixels
    Height                      : 720 pixels
    Display aspect ratio        : 16:9
    Frame rate mode             : Constant
    Frame rate                  : 23.976 (24000/1001) fps
    Color space                 : YUV
    Chroma subsampling          : 4:2:0
    Bit depth                   : 8 bits
    Scan type                   : Progressive
    Bits/(Pixel*Frame)          : 0.083
    Stream size                 : 313 MiB (88%)
    Writing library             : x264 core 148 r11 a01e339
    Encoding settings           : cabac=1 / ref=5 / deblock=1:0:0 / analyse=0x3:0x113 / me=umh / subme=8 / psy=1 / psy_rd=1.00:0.00 / mixed_ref=1 / me_range=16 / chroma_me=1 / trellis=1 / 8x8dct=1 / cqm=0 / deadzone=21,11 / fast_pskip=1 / chroma_qp_offset=-2 / threads=22 / lookahead_threads=3 / sliced_threads=0 / nr=0 / decimate=1 / interlaced=0 / bluray_compat=0 / stitchable=1 / constrained_intra=0 / bframes=3 / b_pyramid=2 / b_adapt=2 / b_bias=0 / direct=3 / weightb=1 / open_gop=0 / weightp=2 / keyint=infinite / keyint_min=23 / scenecut=40 / intra_refresh=0 / rc_lookahead=50 / rc=crf / mbtree=1 / crf=20.0 / qcomp=0.60 / qpmin=5 / qpmax=69 / qpstep=4 / vbv_maxrate=2750 / vbv_bufsize=7500 / crf_max=0.0 / nal_hrd=none / filler=0 / ip_ratio=1.40 / aq=1:1.00
    Encoded date                : UTC 2016-04-01 17:23:39
    Tagged date                 : UTC 2016-04-01 17:23:39
    Color range                 : Limited
    Color primaries             : BT.709
    Transfer characteristics    : BT.709
    Matrix coefficients         : BT.709
    
    Audio
    ID                          : 2
    Format                      : AAC
    Format/Info                 : Advanced Audio Codec
    Format profile              : LC
    Codec ID                    : 40
    Duration                    : 23mn 46s
    Bit rate mode               : Variable
    Bit rate                    : 256 Kbps
    Channel(s)                  : 2 channels
    Channel positions           : Front: L R
    Sampling rate               : 48.0 KHz
    Frame rate                  : 46.875 fps (1024 spf)
    Compression mode            : Lossy
    Stream size                 : 43.5 MiB (12%)
    Encoded date                : UTC 2016-04-01 17:23:39
    Tagged date                 : UTC 2016-04-01 17:23:39
    ]
    
    





    Geschützter Bereich - Bedanke dich beim Poster, um den Bereich sehen zu können
    Hier erfährst Du wie Du Dich bedanken kannst oder werde jetzt Premium Mitglied ab einer Spende von 5€ und erhalte sofortigen Zugriff auf den Downloadbereich!
    Geändert von ShadowTX (6. July 2016 um 17:35 Uhr)

  2. 44 Benutzer sagen Danke:

    adinin (21. May 2016),Angelous (21. May 2016),Audifreak91 (12. June 2016),BlackPhoenix (21. May 2016),Bloodyair (4. June 2016),coldbears48 (20. June 2016),darkwarrior (4. June 2016),DarthToast (21. June 2016),Dylan (28. May 2016),Extraneis (11. June 2016),goldratte (18. June 2016),heikobaer (5. June 2016),herrntod (12. June 2016),Hisamaki (15. August 2016),Jack (18. May 2016),julius6137 (15. May 2016),Kalchi (28. July 2016),kashmael (5. May 2016),knuffel (17. June 2016),Kox598 (17. May 2016),kyfory (12. June 2016),Lombrero (20. June 2016),merb (28. May 2016),meyer (5. June 2016),Miauundso (21. May 2016),midnighter (15. June 2016),mrtheloe (5. June 2016),n0rth (11. June 2016),Nanatzusaya (12. June 2016),old nick (21. May 2016),Ravyn2805 (9. July 2016),redithebat (5. June 2016),Rittai (16. August 2016),Roxas-chan (19. June 2016),Roxy (21. June 2016),Shi No Ryu (8. May 2016),Sirius (5. June 2016),Skully_88 (13. July 2016),SynDic4Te (29. May 2016),Taiho (2. July 2016),TheYoAsakura (21. June 2016),tigerhai (15. June 2016),x6100x (17. June 2016),YamiXGhost (21. May 2016)

  3. #2
    Kleiner Experte Avatar von ShadowTX
    Registriert seit
    Sep 2014
    Beiträge
    109
    Punkte
    3.703
    Errungenschaften:
    1000 ErfahrungspunkteHikikomori

    AW: Gakusen Toshi Asterisk (2016) [Laufend][Jap-Dub][Ger-Sub][720p][WebRip]-Momokors

    ~Folge 06 hinzugefügt

  4. #3
    Kleiner Experte Avatar von ShadowTX
    Registriert seit
    Sep 2014
    Beiträge
    109
    Punkte
    3.703
    Errungenschaften:
    1000 ErfahrungspunkteHikikomori

    AW: Gakusen Toshi Asterisk (2016) [Laufend][Jap-Dub][Ger-Sub][720p][WebRip]-Momokors

    ~Folge 7 hinzugefügt

  5. #4
    Kleiner Experte Avatar von ShadowTX
    Registriert seit
    Sep 2014
    Beiträge
    109
    Punkte
    3.703
    Errungenschaften:
    1000 ErfahrungspunkteHikikomori

    AW: Gakusen Toshi Asterisk (2016) [Laufend][Jap-Dub][Ger-Sub][720p][WebRip]-Momokors

    ~Folge 8 hinzugefügt

  6. #5
    Kleiner Experte Avatar von ShadowTX
    Registriert seit
    Sep 2014
    Beiträge
    109
    Punkte
    3.703
    Errungenschaften:
    1000 ErfahrungspunkteHikikomori

    AW: Gakusen Toshi Asterisk (2016) [Laufend][Jap-Dub][Ger-Sub][720p][WebRip]-Momokors

    ~Folge 9 hinzugefügt

  7. #6
    Kleiner Experte Avatar von ShadowTX
    Registriert seit
    Sep 2014
    Beiträge
    109
    Punkte
    3.703
    Errungenschaften:
    1000 ErfahrungspunkteHikikomori

    AW: Gakusen Toshi Asterisk (2016) [Laufend][Jap-Dub][Ger-Sub][720p][WebRip]-Momokors

    ~Folge 10 hinzugefügt

  8. #7
    Kleiner Experte Avatar von ShadowTX
    Registriert seit
    Sep 2014
    Beiträge
    109
    Punkte
    3.703
    Errungenschaften:
    1000 ErfahrungspunkteHikikomori

    AW: Gakusen Toshi Asterisk (2016) [Laufend][Jap-Dub][Ger-Sub][720p][WebRip]-Momokors

    ~Folge 11 hinzugefügt

  9. #8
    Kleiner Experte Avatar von ShadowTX
    Registriert seit
    Sep 2014
    Beiträge
    109
    Punkte
    3.703
    Errungenschaften:
    1000 ErfahrungspunkteHikikomori

    AW: Gakusen Toshi Asterisk (2016) [Laufend][Jap-Dub][Ger-Sub][720p][WebRip]-Momokors

    ~Folge 12 hinzugefügt

    /Edit Staffel 2 Komplett viel Spass beim schauen

Lesezeichen

Berechtigungen

  • Neue Themen erstellen: Nein
  • Themen beantworten: Nein
  • Anhänge hochladen: Nein
  • Beiträge bearbeiten: Nein
  •  

1 2 3 4 5 6 7 8 9 10 11 12 13 14 15 16 17 18 19 20 21 22 23 24 25 26 27 28 29 30 31 32 33 34 35 36 37 38 39 40 41 42 43 44 45 46 47 48 49 50 51 52 53 54 55 56 57 58 59 60 61 62 63 64 65 66 67 68 69 70 71 72 73 74 75 76 77 78 79 80 81 82 83 84 85 86 87 88 89 90 91 92 93 94 95 96 97 98 99 100 101 102 103 104 105 106 107 108 109 110 111 112 113 114 115 116 117 118 119 120 121 122 123 124 125 126 127 128 129 130 131 132 133 134 135 136 137 138 139 140 141 142 143 144 145 146 147 148 149 150 151 152 153 154 155 156 157 158