Ergebnis 1 bis 3 von 3

Thema: Iria: Zeiram the Animation [JapEngDub][GerEngSub][DVDRip]

Dieser Thread wurde noch nicht bewertet. Bewerte ihn doch, wenn er dir gefällt!
  1. #1
    Erfahrener Otaku Avatar von ohlong
    Registriert seit
    Sep 2013
    Ort
    Im Herzen Deutschlands
    Beiträge
    151
    Punkte
    5.807
    Errungenschaften:
    TomodachisTagger Profi5000 ErfahrungspunkteHikikomori

    Iria: Zeiram the Animation [JapEngDub][GerEngSub][DVDRip]



    Iria
    Iria: Zeiram the Animation
    イ・リ・ア ゼイラム The Animation
    Iria Zeiram The Animation





    Kurzbeschreibung
    Im Jahr 2018 wird Tokio sowohl von normalen Menschen, als auch von Zauberern bewohnt. Die Polizei hält weiterhin die Ordnung aufrecht, allerdings sind Zauberer dem magischen Recht unterworfen und werden in speziellen Gerichten von speziellen Wizard Barristers, Zaubereranwälten, vertreten. Mit 17 Jahren ist Cecile gerade zur jüngsten Wizard Barrister aller Zeiten geworden und sie beginnt in der Butterfly Anwaltskanzlei zu arbeiten. Was sie noch nicht weiß, ist, dass sie selbst über immenses magisches Potential verfügt.

    Sprache: Japanisch, Englisch
    Untertitel: Deutsch, Englisch
    Genre: Action, Sci-Fi, Weltraum, Bionische Kräfte, Drama
    Source: DVD (Remastered)
    Episoden: 6/6
    Format: mkv
    Video-Codec: x264
    Resolution: 712x480
    Größe: 621-679MB
    Releaser: OnDeed, MeisterMutaito
    Hoster: Share-Online, Uploaded


    Technische Informationen
    Spoiler
    Code:
    Format                                   : Matroska
    Format version                           : Version 2
    File size                                : 680 MiB
    Duration                                 : 29mn 0s
    Overall bit rate                         : 3 274 Kbps
    Movie name                               : Iria - Zeiram the Animation 01 - Pitch Black [Remastered]
    Encoded date                             : UTC 2012-05-08 00:06:48
    Writing application                      : mkvmerge v5.0.0 ('Die Wahre Liebe') built on Sep 25 2011 20:33:49
    Writing library                          : libebml v1.2.2 + libmatroska v1.3.0
    Attachment                               : Yes / Yes / Yes / Yes / Yes / Yes / Yes / Yes / Yes
    
    Video
    ID                                       : 1
    Format                                   : AVC
    Format/Info                              : Advanced Video Codec
    Format profile                           : [email protected]
    Format settings, CABAC                   : Yes
    Format settings, ReFrames                : 16 frames
    Muxing mode                              : Header stripping
    Codec ID                                 : V_MPEG4/ISO/AVC
    Duration                                 : 29mn 0s
    Bit rate                                 : 2 569 Kbps
    Width                                    : 712 pixels
    Height                                   : 480 pixels
    Display aspect ratio                     : 4:3
    Original display aspect ratio            : 3:2
    Frame rate                               : 23.976 fps
    Color space                              : YUV
    Chroma subsampling                       : 4:2:0
    Bit depth                                : 8 bits
    Scan type                                : Progressive
    Bits/(Pixel*Frame)                       : 0.314
    Stream size                              : 533 MiB (78%)
    Title                                    : [OnDeed][MeisterMutaito]
    Writing library                          : x264 core 66 r1115 11863ac
    Encoding settings                        : cabac=1 / ref=16 / deblock=1:-1:-1 / analyse=0x3:0x133 / me=umh / subme=9 / psy_rd=0.8:0.0 / mixed_ref=1 / me_range=16 / chroma_me=1 / trellis=2 / 8x8dct=1 / cqm=0 / deadzone=21,11 / chroma_qp_offset=-2 / threads=1 / nr=0 / decimate=1 / mbaff=0 / bframes=16 / b_pyramid=1 / b_adapt=2 / b_bias=0 / direct=1 / wpredb=1 / keyint=240 / keyint_min=25 / scenecut=40 / rc=crf / crf=15.0 / qcomp=0.60 / qpmin=10 / qpmax=51 / qpstep=4 / ip_ratio=1.40 / pb_ratio=1.30 / aq=1:0.80
    Language                                 : German
    Default                                  : Yes
    Forced                                   : No
    
    Audio #1
    ID                                       : 2
    Format                                   : AC-3
    Format/Info                              : Audio Coding 3
    Mode extension                           : CM (complete main)
    Format settings, Endianness              : Big
    Muxing mode                              : Header stripping
    Codec ID                                 : A_AC3
    Duration                                 : 29mn 0s
    Bit rate mode                            : Constant
    Bit rate                                 : 448 Kbps
    Channel(s)                               : 2 channels
    Channel positions                        : Front: L R
    Sampling rate                            : 48.0 KHz
    Bit depth                                : 16 bits
    Compression mode                         : Lossy
    Stream size                              : 93.0 MiB (14%)
    Title                                    : Japanisch (AC3)
    Language                                 : Japanese
    Default                                  : Yes
    Forced                                   : No
    
    Audio #2
    ID                                       : 3
    Format                                   : AC-3
    Format/Info                              : Audio Coding 3
    Mode extension                           : CM (complete main)
    Format settings, Endianness              : Big
    Muxing mode                              : Header stripping
    Codec ID                                 : A_AC3
    Duration                                 : 29mn 0s
    Bit rate mode                            : Constant
    Bit rate                                 : 192 Kbps
    Channel(s)                               : 2 channels
    Channel positions                        : Front: L R
    Sampling rate                            : 48.0 KHz
    Bit depth                                : 16 bits
    Compression mode                         : Lossy
    Stream size                              : 39.8 MiB (6%)
    Title                                    : Englisch (AC3)
    Language                                 : English
    Default                                  : No
    Forced                                   : No
    
    Text #1
    ID                                       : 4
    Format                                   : ASS
    Codec ID                                 : S_TEXT/ASS
    Codec ID/Info                            : Advanced Sub Station Alpha
    Compression mode                         : Lossless
    Title                                    : German (ASS)
    Language                                 : German
    Default                                  : Yes
    Forced                                   : No
    
    Text #2
    ID                                       : 5
    Format                                   : UTF-8
    Codec ID                                 : S_TEXT/UTF8
    Codec ID/Info                            : UTF-8 Plain Text
    Title                                    : German (SRT)
    Language                                 : German
    Default                                  : No
    Forced                                   : No
    
    Text #3
    ID                                       : 6
    Format                                   : ASS
    Codec ID                                 : S_TEXT/ASS
    Codec ID/Info                            : Advanced Sub Station Alpha
    Compression mode                         : Lossless
    Title                                    : English R1 DVD (ASS)
    Language                                 : English
    Default                                  : No
    Forced                                   : No
    
    Text #4
    ID                                       : 7
    Format                                   : ASS
    Codec ID                                 : S_TEXT/ASS
    Codec ID/Info                            : Advanced Sub Station Alpha
    Compression mode                         : Lossless
    Title                                    : English Fansub (ASS)
    Language                                 : English
    Default                                  : No
    Forced                                   : No



    Password
    [email protected]

    Geschützter Bereich - Bedanke dich beim Poster, um den Bereich sehen zu können
    Hier erfährst Du wie Du Dich bedanken kannst oder werde jetzt Premium Mitglied ab einer Spende von 5€ und erhalte sofortigen Zugriff auf den Downloadbereich!

    Geändert von ohlong (12. January 2016 um 17:04 Uhr)

  2. 27 Benutzer sagen Danke:

    679647 (7. November 2016),Akio (23. August 2015),Asturaetus (8. May 2014),Bombur (23. August 2015),Daran2010 (2. January 2015),Dark Justice (31. December 2014),Draagul (14. April 2014),Dreieckhard (31. December 2014),Farelliser (15. September 2014),farmerjoe (28. June 2014),Ghostraven (1. September 2015),Hisamaki (15. June 2014),JoleenLovesMina (14. April 2014),Kalchi (18. July 2016),Keldaan (22. May 2014),midnighter (14. January 2015),mpbia (13. November 2014),Nanatzusaya (23. August 2015),nemo (6. January 2015),Over (7. March 2015),Paulus (23. December 2014),SnowCat (17. April 2014),Valetinese (31. December 2014),wire1257 (2. January 2015),Zaisen (17. April 2014),Zeichensalat (22. August 2015)

  3. #2
    Erfahrener Otaku Avatar von ohlong
    Registriert seit
    Sep 2013
    Ort
    Im Herzen Deutschlands
    Beiträge
    151
    Punkte
    5.807
    Errungenschaften:
    TomodachisTagger Profi5000 ErfahrungspunkteHikikomori

    AW: Iria: Zeiram the Animation [6/6][JapEngDub][GerEngSub][DVDRip]

    Reup auf Share-Online & Uploaded

  4. 1 Benutzer sagt Danke:

    SnowCat (1. January 2015)

  5. #3
    Erfahrener Otaku Avatar von ohlong
    Registriert seit
    Sep 2013
    Ort
    Im Herzen Deutschlands
    Beiträge
    151
    Punkte
    5.807
    Errungenschaften:
    TomodachisTagger Profi5000 ErfahrungspunkteHikikomori

    AW: Iria: Zeiram the Animation [6/6][JapEngDub][GerEngSub][DVDRip]

    Reup auf Share-Online & Uploaded

Stichworte

Lesezeichen

Berechtigungen

  • Neue Themen erstellen: Nein
  • Themen beantworten: Nein
  • Anhänge hochladen: Nein
  • Beiträge bearbeiten: Nein
  •  

1 2 3 4 5 6 7 8 9 10 11 12 13 14 15 16 17 18 19 20 21 22 23 24 25 26 27 28 29 30 31 32 33 34 35 36 37 38 39 40 41 42 43 44 45 46 47 48 49 50 51 52 53 54 55 56 57 58 59 60 61 62 63 64 65 66 67 68 69 70 71 72 73 74 75 76 77 78 79 80 81 82 83 84 85 86 87 88 89 90 91 92 93 94 95 96 97 98 99 100 101 102 103 104 105 106 107 108 109 110 111 112 113 114 115 116 117 118 119 120 121 122 123 124 125 126 127 128 129 130 131 132 133 134 135 136 137 138 139 140 141 142 143 144 145 146 147 148 149 150 151 152 153 154 155 156 157 158