Ergebnis 1 bis 1 von 1

Thema: Kekkai Sensen [Jap-Dub][Ger-Sub][720p][HDTV] - AnimeSubways

Dieser Thread wurde noch nicht bewertet. Bewerte ihn doch, wenn er dir gefällt!
  1. #1
    Kami-sama Avatar von galudo
    Registriert seit
    Mar 2015
    Beiträge
    1.371
    Punkte
    26.053
    Errungenschaften:
    TomodachisTagger ProfiHyperaktivSenpaiGang Leader

    Kekkai Sensen [Jap-Dub][Ger-Sub][720p][HDTV] - AnimeSubways

    Kekkai Sensen
    血界戦線
    Blood Blockade Battlefront



    Kurzbeschreibung
    New York ist nicht mehr das, was es einmal war. Nachdem es in einen geheimnisvollen Nebel gehüllt wurde, der sämtliche Menschen darin einsperrte, öffnete sich ein Tor zu einer anderen Welt, die sich nun mit der Stadt vermischt, die jetzt als Hellusalem's Lot bekannt ist.
    Eine Geheimorganisation namens Libra sorgt in dieser neuen Welt für das Gleichgewicht und als Journalist und Photograph Leonardo Watch gerade in der Stadt ankommt, wird er völlig unerwartet von eben dieser rekrutiert.
    Format: MP4
    Sprache: Japanisch
    Untertitel: Deutsch
    Genre: Action, Abenteuer, Action, Fantasy, Mystery, Männlich, Sci-Fi
    Größe: ~ 370 MB pro Folge | Gesamtgröße: 4,78 GB
    Dauer: ~ 25 Minuten
    Jahr: 2015
    Video: 720p
    Source: HDTV
    Subgroup / Releasegroup: AnimeSubways

    Hoster: Share-Online | Uploaded
    Passwort: siehe unten


    Datei-Info
    Spoiler
    Code:
    General
    Complete name                  : Kekkai Sensen - 01.mp4
    Format                         : MPEG-4
    Format profile                 : Base Media
    Codec ID                       : isom
    File size                      : 372 MiB
    Duration                       : 24mn 29s
    Overall bit rate mode          : Variable
    Overall bit rate               : 2 126 Kbps
    Writing application            : Lavf56.25.101
    
    Video
    ID                             : 1
    Format                         : AVC
    Format/Info                    : Advanced Video Codec
    Format profile                 : [email protected]
    Format settings, CABAC         : Yes
    Format settings, ReFrames      : 5 frames
    Codec ID                       : avc1
    Codec ID/Info                  : Advanced Video Coding
    Duration                       : 24mn 29s
    Bit rate                       : 2 000 Kbps
    Width                          : 1 280 pixels
    Height                         : 720 pixels
    Display aspect ratio           : 16:9
    Frame rate mode                : Constant
    Frame rate                     : 23.976 fps
    Color space                    : YUV
    Chroma subsampling             : 4:2:0
    Bit depth                      : 8 bits
    Scan type                      : Progressive
    Bits/(Pixel*Frame)             : 0.091
    Stream size                    : 349 MiB (94%)
    Writing library                : x264 core 146 r2538 121396c
    Encoding settings              : cabac=1 / ref=5 / deblock=1:0:0 / analyse=0x3:0x113 / me=umh / subme=8 / psy=1 / psy_rd=1.00:0.00 / mixed_ref=1 / me_range=8 / chroma_me=1 / trellis=1 / 8x8dct=1 / cqm=0 / deadzone=21,11 / fast_pskip=1 / chroma_qp_offset=-2 / threads=4 / lookahead_threads=1 / sliced_threads=0 / nr=0 / decimate=1 / interlaced=0 / bluray_compat=0 / constrained_intra=0 / bframes=3 / b_pyramid=2 / b_adapt=2 / b_bias=0 / direct=3 / weightb=1 / open_gop=0 / weightp=2 / keyint=240 / keyint_min=23 / scenecut=40 / intra_refresh=0 / rc_lookahead=50 / rc=2pass / mbtree=1 / bitrate=2000 / ratetol=1.0 / qcomp=0.60 / qpmin=0 / qpmax=69 / qpstep=4 / cplxblur=20.0 / qblur=0.5 / vbv_maxrate=3000 / vbv_bufsize=8000 / nal_hrd=none / filler=0 / ip_ratio=1.40 / aq=1:1.00
    
    Audio
    ID                             : 2
    Format                         : AAC
    Format/Info                    : Advanced Audio Codec
    Format profile                 : LC
    Codec ID                       : 40
    Duration                       : 24mn 29s
    Duration_LastFrame             : -11ms
    Bit rate mode                  : Variable
    Bit rate                       : 128 Kbps
    Maximum bit rate               : 3 000 Kbps
    Channel(s)                     : 2 channels
    Channel positions              : Front: L R
    Sampling rate                  : 44.1 KHz
    Compression mode               : Lossy
    Stream size                    : 22.4 MiB (6%)
    


    Folgen 12 / 12 online
    Folgen einzeln ladbar



    || Download & Passwort ||


    Geschützter Bereich - Bedanke dich beim Poster, um den Bereich sehen zu können
    Hier erfährst Du wie Du Dich bedanken kannst oder werde jetzt Premium Mitglied ab einer Spende von 5€ und erhalte sofortigen Zugriff auf den Downloadbereich!

    Geändert von galudo (14. December 2015 um 16:32 Uhr)
    SUPPORT UND REUP ANFRAGEN NUR >> [Links sind nur für registrierte und aktivierte Nutzer sichtbar. Klicke hier um dich zu registrieren.] <<
    Bitte IMMER den Thread-Link mitschicken.

  2. 62 Benutzer sagen Danke:

    Anzeigen

    adinin (2. July 2016),Akulti (13. January 2016),Araragisan (18. October 2015),BlackPhoenix (28. November 2015),Callisto (30. November 2015),cfg1340 (2. April 2016),chopper23 (12. March 2016),CKSI (18. October 2015),Corntendo (15. January 2016),DarkChaos (17. October 2015),Denetonne (6. December 2015),Deusira (24. October 2015),dionys (21. July 2016),doublegf (20. October 2015),Eraqore (13. December 2015),ferid_berlin92 (5. May 2016),Firefly (20. October 2015),Flowbow (1. May 2016),foiderbua (18. October 2015),FreshMagma (17. October 2015),Ghostraven (19. October 2015),Haxz0r (18. October 2015),Hi im Shini (8. December 2015),Hououin Kyouma (7. November 2015),Imilya (8. May 2016),KaiserDiaz (22. March 2016),Kalchi (21. July 2016),Kaori (22. November 2015),Katsura (13. January 2016),KrachbumAlex (18. October 2015),mar3el (19. October 2015),Max13493 (15. November 2015),Meistermagier (16. November 2015),Miauundso (17. October 2015),midnighter (26. October 2015),mik_y (9. January 2016),Natsuki (17. October 2015),Nijazi2000 (22. October 2015),Okarin (17. October 2015),prinzvegeta (1. November 2015),rekiznuh1 (28. October 2015),Rheijaa (4. March 2016),Roxas-chan (4. November 2015),Salamander93 (23. November 2015),Sandy7580 (3. October 2016),satsugai (5. January 2016),Scruffy (30. July 2016),Simca (17. May 2016),TastyCrysis (10. January 2016),TechaNexus (11. November 2015),Th3N0ob3r (16. December 2015),thereverend (6. January 2016),thomas (6. January 2016),Tysar (18. October 2015),Valetinese (18. October 2015),Wakaba (18. October 2015),wasweisich (1. November 2015),Windwusel (15. November 2015),Wölfchen (18. October 2015),xhellsingx (23. May 2016),Yaranaika (7. August 2016),Yishar (25. February 2016)

Stichworte

Lesezeichen

Berechtigungen

  • Neue Themen erstellen: Nein
  • Themen beantworten: Nein
  • Anhänge hochladen: Nein
  • Beiträge bearbeiten: Nein
  •  

1 2 3 4 5 6 7 8 9 10 11 12 13 14 15 16 17 18 19 20 21 22 23 24 25 26 27 28 29 30 31 32 33 34 35 36 37 38 39 40 41 42 43 44 45 46 47 48 49 50 51 52 53 54 55 56 57 58 59 60 61 62 63 64 65 66 67 68 69 70 71 72 73 74 75 76 77 78 79 80 81 82 83 84 85 86 87 88 89 90 91 92 93 94 95 96 97 98 99 100 101 102 103 104 105 106 107 108 109 110 111 112 113 114 115 116 117 118 119 120 121 122 123 124 125 126 127 128 129 130 131 132 133 134 135 136 137 138 139 140 141 142 143 144 145 146 147 148 149 150 151 152 153 154 155 156 157 158