Ergebnis 1 bis 2 von 2

Thema: Kiznaiver [Jap-Dub][Ger-Sub][720p/1080p][WebRip] - H0K

Dieser Thread wurde durchschnittlich mit 5 Sternen bewertet, wobei 1 Stern die schlechteste und 5 Sterne die beste Bewertung ist. Es haben insgesamt 2 Mitglieder eine Bewertung abgegeben.

  1. #1
    United we Stand Avatar von 00Ryuji00
    Registriert seit
    Oct 2012
    Beiträge
    3.896
    Punkte
    99.519
    Errungenschaften:
    TomodachisGang LeaderHikikomoriTagger Amateur50000 Erfahrungspunkte

    Kiznaiver [Jap-Dub][Ger-Sub][720p/1080p][WebRip] - H0K


    Kiznaiver
    キズナイーバー






    Kurzbeschreibung:
    Zitat Zitat von AniSearch.com
    Katsuhira lebt in der fiktiven japanischen Stadt Sugomori City. Durch einen Vorfall hat er sein Schmerzempfinden verloren und driftet seither lethargisch und ziellos durchs Leben, ohne sich viel um sich selbst oder sein Wohlergehen zu kümmern. Eines Tages tritt seine Mitschülerin Sonosaki vor ihn und teilt ihm mit, dass er ausgewählt wurde ein Kiznaiver zu sein. Als solcher wird er Teil des Kizuna-Systems, durch das seine Schmerzen ab nun mit einer Gruppe seiner Mitschüler geteilt werden. Ziel des Systems ist es, durch dieses Teilen der Schmerzen eine friedlichere Gesellschaft zu schaffen, doch kümmert das die ohne ihre Zustimmung ausgewählten Testpersonen wenig. Diese sehen sich nun nicht nur mit dieser neuen, schmerzhaften Abhängigkeit von anderen konfrontiert, sondern bekommen auch seltsame Aufgabenstellungen vorgegeben, deren Sinn für sie nicht wirklich erkennbar ist. Für Katsuhiro allerdings ist das System die Möglichkeit, erstmals wieder Schmerzen zu fühlen und Verbindungen zu anderen Menschen aufzubauen.


    Spieldauer: 24min
    Genre: Drama
    Nebengenres: Action, Drama, Psychodrama, Romanze, Scifi, Thriller
    Jahr: 2016
    Sprache: Japanisch
    Untertitel: Deutsch
    Größe pro Folge: ~320 MiB ~601 MiB
    Episodenanzahl: 12/12
    Format: MP4
    Auflösung: 720p (16:9), 1080p (16:9)
    Videocodec: x264 (AVC)
    Audiocodec: AAC
    Releasegruppe: HelloKitty-Crew (Peppermint)
    Hoster: Share-Online, Uploaded


    MediaInfo
    720p
    Code:
    
    Format                                   : MPEG-4
    Format profile                           : Base Media / Version 2
    Codec ID                                 : mp42
    File size                                : 320 MiB
    Duration                                 : 24mn 6s
    Overall bit rate mode                    : Variable
    Overall bit rate                         : 1 857 Kbps
    Encoded date                             : UTC 2016-04-08 16:45:40
    Tagged date                              : UTC 2016-04-08 16:45:40
    
    Video
    ID                                       : 1
    Format                                   : AVC
    Format/Info                              : Advanced Video Codec
    Format profile                           : [email protected]
    Format settings, CABAC                   : Yes
    Format settings, ReFrames                : 5 frames
    Codec ID                                 : avc1
    Codec ID/Info                            : Advanced Video Coding
    Duration                                 : 24mn 6s
    Bit rate                                 : 1 597 Kbps
    Width                                    : 1 280 pixels
    Height                                   : 720 pixels
    Display aspect ratio                     : 16:9
    Frame rate mode                          : Constant
    Frame rate                               : 23.976 fps
    Color space                              : YUV
    Chroma subsampling                       : 4:2:0
    Bit depth                                : 8 bits
    Scan type                                : Progressive
    Bits/(Pixel*Frame)                       : 0.072
    Stream size                              : 275 MiB (86%)
    Writing library                          : x264 core 148 r11 a01e339
    Encoding settings                        : cabac=1 / ref=5 / deblock=1:0:0 / analyse=0x3:0x113 / me=umh / subme=8 / psy=1 / psy_rd=1.00:0.00 / mixed_ref=1 / me_range=16 / chroma_me=1 / trellis=1 / 8x8dct=1 / cqm=0 / deadzone=21,11 / fast_pskip=1 / chroma_qp_offset=-2 / threads=22 / lookahead_threads=3 / sliced_threads=0 / nr=0 / decimate=1 / interlaced=0 / bluray_compat=0 / stitchable=1 / constrained_intra=0 / bframes=3 / b_pyramid=2 / b_adapt=2 / b_bias=0 / direct=3 / weightb=1 / open_gop=0 / weightp=2 / keyint=infinite / keyint_min=23 / scenecut=40 / intra_refresh=0 / rc_lookahead=50 / rc=crf / mbtree=1 / crf=20.0 / qcomp=0.60 / qpmin=5 / qpmax=69 / qpstep=4 / vbv_maxrate=2750 / vbv_bufsize=7500 / crf_max=0.0 / nal_hrd=none / filler=0 / ip_ratio=1.40 / aq=1:1.00
    Encoded date                             : UTC 2016-04-08 16:45:40
    Tagged date                              : UTC 2016-04-08 16:45:40
    Color range                              : Limited
    Color primaries                          : BT.709
    Transfer characteristics                 : BT.709
    Matrix coefficients                      : BT.709
    
    Audio
    ID                                       : 2
    Format                                   : AAC
    Format/Info                              : Advanced Audio Codec
    Format profile                           : LC
    Codec ID                                 : 40
    Duration                                 : 24mn 6s
    Bit rate mode                            : Variable
    Bit rate                                 : 256 Kbps
    Channel(s)                               : 2 channels
    Channel positions                        : Front: L R
    Sampling rate                            : 48.0 KHz
    Compression mode                         : Lossy
    Stream size                              : 44.1 MiB (14%)
    Encoded date                             : UTC 2016-04-08 16:45:40
    Tagged date                              : UTC 2016-04-08 16:45:40
    
    


    1080p
    Code:
    
    Format                                   : MPEG-4
    Format profile                           : Base Media / Version 2
    Codec ID                                 : mp42
    File size                                : 601 MiB
    Duration                                 : 24mn 6s
    Overall bit rate mode                    : Variable
    Overall bit rate                         : 3 484 Kbps
    Encoded date                             : UTC 2016-04-08 16:52:22
    Tagged date                              : UTC 2016-04-08 16:52:22
    
    Video
    ID                                       : 1
    Format                                   : AVC
    Format/Info                              : Advanced Video Codec
    Format profile                           : [email protected]
    Format settings, CABAC                   : Yes
    Format settings, ReFrames                : 4 frames
    Codec ID                                 : avc1
    Codec ID/Info                            : Advanced Video Coding
    Duration                                 : 24mn 6s
    Bit rate                                 : 3 224 Kbps
    Width                                    : 1 920 pixels
    Height                                   : 1 080 pixels
    Display aspect ratio                     : 16:9
    Frame rate mode                          : Constant
    Frame rate                               : 23.976 fps
    Color space                              : YUV
    Chroma subsampling                       : 4:2:0
    Bit depth                                : 8 bits
    Scan type                                : Progressive
    Bits/(Pixel*Frame)                       : 0.065
    Stream size                              : 556 MiB (93%)
    Writing library                          : x264 core 148 r11 a01e339
    Encoding settings                        : cabac=1 / ref=4 / deblock=1:0:0 / analyse=0x3:0x113 / me=umh / subme=8 / psy=1 / psy_rd=1.00:0.00 / mixed_ref=1 / me_range=16 / chroma_me=1 / trellis=1 / 8x8dct=1 / cqm=0 / deadzone=21,11 / fast_pskip=1 / chroma_qp_offset=-2 / threads=34 / lookahead_threads=5 / sliced_threads=0 / nr=0 / decimate=1 / interlaced=0 / bluray_compat=0 / stitchable=1 / constrained_intra=0 / bframes=3 / b_pyramid=2 / b_adapt=2 / b_bias=0 / direct=3 / weightb=1 / open_gop=0 / weightp=2 / keyint=infinite / keyint_min=23 / scenecut=40 / intra_refresh=0 / rc_lookahead=50 / rc=crf / mbtree=1 / crf=20.0 / qcomp=0.60 / qpmin=5 / qpmax=69 / qpstep=4 / vbv_maxrate=4950 / vbv_bufsize=13500 / crf_max=0.0 / nal_hrd=none / filler=0 / ip_ratio=1.40 / aq=1:1.00
    Encoded date                             : UTC 2016-04-08 16:52:22
    Tagged date                              : UTC 2016-04-08 16:52:22
    Color range                              : Limited
    Color primaries                          : BT.709
    Transfer characteristics                 : BT.709
    Matrix coefficients                      : BT.709
    
    Audio
    ID                                       : 2
    Format                                   : AAC
    Format/Info                              : Advanced Audio Codec
    Format profile                           : LC
    Codec ID                                 : 40
    Duration                                 : 24mn 6s
    Bit rate mode                            : Variable
    Bit rate                                 : 256 Kbps
    Channel(s)                               : 2 channels
    Channel positions                        : Front: L R
    Sampling rate                            : 48.0 KHz
    Compression mode                         : Lossy
    Stream size                              : 44.1 MiB (7%)
    Encoded date                             : UTC 2016-04-08 16:52:22
    Tagged date                              : UTC 2016-04-08 16:52:22
    
    






    Geschützter Bereich - Bedanke dich beim Poster, um den Bereich sehen zu können
    Hier erfährst Du wie Du Dich bedanken kannst oder werde jetzt Premium Mitglied ab einer Spende von 5€ und erhalte sofortigen Zugriff auf den Downloadbereich!

    [Links sind nur für registrierte und aktivierte Nutzer sichtbar. Klicke hier um dich zu registrieren.]
    !!!Alle Anliegen bezüglich Uploads werden nur mit direktem Threadlink zum Angebot bearbeitet!!!

    Re-Uploadanfragen nur per PN - Ihr könnt mir auch Listen schicken

    Re-Uploads erfolgen meist innerhalb 24h, kann aber auch bis zu 7 Tage dauern

    [Links sind nur für registrierte und aktivierte Nutzer sichtbar. Klicke hier um dich zu registrieren.] | [Links sind nur für registrierte und aktivierte Nutzer sichtbar. Klicke hier um dich zu registrieren.] | >[Links sind nur für registrierte und aktivierte Nutzer sichtbar. Klicke hier um dich zu registrieren.]<
    [Links sind nur für registrierte und aktivierte Nutzer sichtbar. Klicke hier um dich zu registrieren.]

  2. 8 Benutzer sagen Danke:

    Aikanary (26. November 2016),Flowbow (5. November 2016),HerzogZepar (10. October 2016),Hyro (6. November 2016),iCapuz (13. November 2016),Kalchi (18. November 2016),SnowCat (28. September 2016),Taiho (28. November 2016)

  3. #2
    Uploader Avatar von Masaru
    Registriert seit
    Jan 2016
    Ort
    neumünster
    Beiträge
    453
    Punkte
    11.993
    Errungenschaften:
    10000 ErfahrungspunkteSenpai

    Kiznaiver [Jap-Dub][Ger-Sub][720p/1080p][WebRip] - H0K


    Kiznaiver






    Kurzbeschreibung:
    Zitat Zitat von AniSearch.com
    Eines Tages eröffnet Noriko ihrem Mitschüler Katsuhira das er auserwählt wurde ein "Kiznaiver" zu werden. Das Kizuna System, welches ihm erlaubt seine Verletzungen zu teilen, verbindet ihn mit seinen Mitschülern, deren Alltag und Persönlichkeiten sich komplett von ihm unterscheiden. Doch dieses System ist eine unausgereifte Idee den Weltfrieden zu sichern, und somit ändert sich Katsuhiras Leben nicht nur zum Positiven.


    Spieldauer: 23 Minuten
    Genre: Action, Drama, Scifi, Thriller
    Jahr: 2016
    Sprache: Japanisch
    Untertitel: Deutsch
    Größe pro Folge: ~320 MiB / ~631 MiB
    Episodenanzahl: 12/12
    Format: MP4
    Auflösung: 720p (16:9), 1080p (16:9)
    Videocodec: x264 (AVC)
    Audiocodec: AAC
    Releasegruppe: Peppermint / H0K
    Hoster: Uploaded, Share-Online


    MediaInfo
    1080p
    Code:
    
    Container
    Format: MPEG-4
    Format-Profil: Base Media / Version 2
    Dateigre: 631 MiB
    Dauer: 23min
    Gesamte Bitrate: 3 682 Kbps
    
    Video
    Format: AVC
    Format-Profil: High@ L4
    Dauer: 23min
    Bitrate: 3 422 Kbps
    Breite: 1 920 Pixel
    Höhe: 1 080 Pixel
    Modus der Bildwiederholungsrate: konstant
    Bildwiederholungsrate: 23,976 (24000/1001) FPS
    
    Audio
    Format: AAC
    Format-Profil: LC
    Dauer: 23min
    Bitrate: 256 Kbps
    Kanäle: 2 Kanäle
    Bildwiederholungsrate: 46,875 FPS (1024 spf)
    
    


    720p
    Code:
    
    Container
    Format: MPEG-4
    Format-Profil: Base Media / Version 2
    Dateigre: 320 MiB
    Dauer: 24min
    Gesamte Bitrate: 1 857 Kbps
    
    Video
    Format: AVC
    Format-Profil: High@ L3.2
    Dauer: 24min
    Bitrate: 1 597 Kbps
    Breite: 1 280 Pixel
    Höhe: 720 Pixel
    Modus der Bildwiederholungsrate: konstant
    Bildwiederholungsrate: 23,976 (24000/1001) FPS
    
    Audio
    Format: AAC
    Format-Profil: LC
    Dauer: 24min
    Bitrate: 256 Kbps
    Kanäle: 2 Kanäle
    Bildwiederholungsrate: 46,875 FPS (1024 spf)
    
    






    Geschützter Bereich - Bedanke dich beim Poster, um den Bereich sehen zu können
    Hier erfährst Du wie Du Dich bedanken kannst oder werde jetzt Premium Mitglied ab einer Spende von 5€ und erhalte sofortigen Zugriff auf den Downloadbereich!

    [Links sind nur für registrierte und aktivierte Nutzer sichtbar. Klicke hier um dich zu registrieren.]
    Geändert von Masaru (27. June 2016 um 10:48 Uhr)

  4. 99 Benutzer sagen Danke:

    Anzeigen

    Akatsuki (19. June 2016),Alodas (4. May 2016),Animewolf (19. August 2016),Anoand (29. June 2016),Baschti1989 (9. July 2016),Black Lotus (15. July 2016),Bloodyair (8. May 2016),Buze (24. April 2016),chopper23 (17. April 2016),ChristianLake (3. May 2016),coldbears48 (3. May 2016),Dark Justice (3. May 2016),darkwarrior (17. April 2016),Dark_Supway (16. August 2016),DjRayleigh (17. April 2016),Eraqore (21. July 2016),Evilsensei (17. April 2016),Eyes of the Insane (23. August 2016),FingerMove (12. June 2016),foiderbua (17. April 2016),Geisterhaendler (27. June 2016),Gelex (5. September 2016),hadis1000 (29. June 2016),harry9x (17. July 2016),HerzogZepar (10. October 2016),Hi im Shini (3. May 2016),Hinamori309 (10. July 2016),Hisamaki (4. August 2016),hnnnn (7. October 2016),inst4gib (7. July 2016),iPwnage (12. August 2016),IshiFuroito (28. June 2016),Itachi.Uchiha (29. July 2016),johnny10 (29. June 2016),Kalchi (30. July 2016),Kartox (4. May 2016),Katsura (8. July 2016),killerder0 (4. July 2016),Kimab (4. August 2016),Knuddelbearli (10. September 2016),Kox598 (13. May 2016),Kristero (9. July 2016),Kyroja (27. July 2016),LawrenceKraft (2. July 2016),Leviathan42 (23. July 2016),Loki92 (2. June 2016),lucky_mer (24. April 2016),Magicmanx (5. September 2016),manuel4193 (18. April 2016),mar3el (17. July 2016),MegaMacX (9. August 2016),Megamani (17. April 2016),Meistermagier (28. June 2016),Miau (14. July 2016),Miauundso (9. May 2016),midnighter (17. June 2016),mik_y (6. July 2016),Miriweth (14. May 2016),Multiking (29. June 2016),neocx (29. May 2016),NLHTeddyNLH (16. July 2016),Noire16 (24. April 2016),Nyan (4. May 2016),okzide (8. May 2016),Pazu (1. August 2016),prinzvegeta (7. August 2016),Proton2065 (17. April 2016),Rikune (10. July 2016),Ronae (4. May 2016),Roxas-chan (5. August 2016),sangheilie (10. August 2016),SciTeC (18. July 2016),Senseless (17. April 2016),Sepsis (10. July 2016),Shi No Ryu (17. April 2016),Shugyosha (17. April 2016),SnowCat (3. July 2016),SONNYxq (17. April 2016),ssj3shad (26. April 2016),Suigetsu (24. April 2016),Th3R3v0lut1on (10. July 2016),TheYoAsakura (28. June 2016),The_Iron (28. June 2016),thomas (24. April 2016),tigerhai (26. September 2016),tokyodrift (27. June 2016),treffgarnix (2. July 2016),Tysar (3. July 2016),undertaker0951 (11. August 2016),unknown5731 (20. April 2016),Vagabund (19. October 2016),Vivere (11. July 2016),Windwusel (17. April 2016),x6100x (16. July 2016),Xerx3s (9. September 2016),xSorrowxKingx (24. July 2016),Zap (2. May 2016),ZER0XIII (13. May 2016),ZeroCM89 (3. July 2016)

Lesezeichen

Berechtigungen

  • Neue Themen erstellen: Nein
  • Themen beantworten: Nein
  • Anhänge hochladen: Nein
  • Beiträge bearbeiten: Nein
  •  

1 2 3 4 5 6 7 8 9 10 11 12 13 14 15 16 17 18 19 20 21 22 23 24 25 26 27 28 29 30 31 32 33 34 35 36 37 38 39 40 41 42 43 44 45 46 47 48 49 50 51 52 53 54 55 56 57 58 59 60 61 62 63 64 65 66 67 68 69 70 71 72 73 74 75 76 77 78 79 80 81 82 83 84 85 86 87 88 89 90 91 92 93 94 95 96 97 98 99 100 101 102 103 104 105 106 107 108 109 110 111 112 113 114 115 116 117 118 119 120 121 122 123 124 125 126 127 128 129 130 131 132 133 134 135 136 137 138 139 140 141 142 143 144 145 146 147 148 149 150 151 152 153 154 155 156 157 158