Ergebnis 1 bis 13 von 13

Thema: Koutetsujou no Kabaneri [Jap-Dub][Ger-Sub][720p][HDTV] - Pure-Anime

Dieser Thread wurde durchschnittlich mit 5 Sternen bewertet, wobei 1 Stern die schlechteste und 5 Sterne die beste Bewertung ist. Es haben insgesamt 1 Mitglieder eine Bewertung abgegeben.

  1. #1
    Uploader Avatar von Filbo11
    Registriert seit
    Jan 2015
    Beiträge
    931
    Punkte
    17.281
    Errungenschaften:
    TomodachisErste Gruppe1 Jahr registriertCreated Album picturesTagger First Class

    Koutetsujou no Kabaneri [Jap-Dub][Ger-Sub][720p][HDTV] - Pure-Anime

    Koutetsujou no Kabaneri
    甲鉄城のカバネリ
    Kabaneri of the Iron Fortress




    Beschreibung

    Die Welt befindet in der Mitte einer industriellen Revolution als ein nahezu unsterbliches Monster erscheint, das durch Infektionen Menschen in untote Kreaturen verwandelt, genannt Kabane. Die einzige Schwäche dieser Monster liegt in ihren Herzen, die allerdings durch eine dicke Schicht aus Eisen geschützt sind.

    Format: MP4
    Dauer: ca. 24 min
    Größe: ca. 204 MB
    Sprache: Japanisch
    Untertitel: Deutsch
    Group: [Pure-Anime]
    Hoster: Uploaded.net & Share-Online.biz
    kein PW


    Screenshots & MediaInfo

    Spoiler
    [Links sind nur für registrierte und aktivierte Nutzer sichtbar. Klicke hier um dich zu registrieren.]

    Code:
    General
    Complete name               : [Pure-Ani.me]Koutetsujou no Kabaneri 01 Ger Sub.mp4
    Format                      : MPEG-4
    Format profile              : Base Media
    Codec ID                    : isom (isom/avc1/iso6)
    File size                   : 205 MiB
    Duration                    : 22mn 49s
    Overall bit rate mode       : Variable
    Overall bit rate            : 1 253 Kbps
    Encoded date                : UTC 2016-04-08 16:11:27
    Tagged date                 : UTC 2016-04-08 16:11:27
    
    Video
    ID                          : 1
    Format                      : AVC
    Format/Info                 : Advanced Video Codec
    Format profile              : [email protected]
    Format settings, CABAC      : Yes
    Format settings, ReFrames   : 4 frames
    Codec ID                    : avc1
    Codec ID/Info               : Advanced Video Coding
    Duration                    : 22mn 49s
    Bit rate                    : 1 072 Kbps
    Maximum bit rate            : 5 406 Kbps
    Width                       : 1 280 pixels
    Height                      : 720 pixels
    Display aspect ratio        : 16:9
    Frame rate mode             : Constant
    Frame rate                  : 23.976 (24000/1001) fps
    Color space                 : YUV
    Chroma subsampling          : 4:2:0
    Bit depth                   : 8 bits
    Scan type                   : Progressive
    Bits/(Pixel*Frame)          : 0.049
    Stream size                 : 175 MiB (86%)
    Writing library             : x264 core 148 r2638 7599210
    Encoding settings           : cabac=1 / ref=3 / deblock=1:0:0 / analyse=0x3:0x113 / me=hex / subme=7 / psy=1 / psy_rd=1.00:0.00 / mixed_ref=1 / me_range=16 / chroma_me=1 / trellis=1 / 8x8dct=1 / cqm=0 / deadzone=21,11 / fast_pskip=1 / chroma_qp_offset=-2 / threads=12 / lookahead_threads=2 / sliced_threads=0 / nr=0 / decimate=1 / interlaced=0 / bluray_compat=0 / constrained_intra=0 / bframes=3 / b_pyramid=2 / b_adapt=1 / b_bias=0 / direct=1 / weightb=1 / open_gop=0 / weightp=2 / keyint=240 / keyint_min=23 / scenecut=40 / intra_refresh=0 / rc_lookahead=40 / rc=2pass / mbtree=1 / bitrate=1072 / ratetol=1.0 / qcomp=0.60 / qpmin=0 / qpmax=69 / qpstep=4 / cplxblur=20.0 / qblur=0.5 / ip_ratio=1.40 / aq=1:1.00
    Encoded date                : UTC 2016-04-08 16:11:27
    Tagged date                 : UTC 2016-04-08 16:11:30
    
    Audio
    ID                          : 2
    Format                      : AAC
    Format/Info                 : Advanced Audio Codec
    Format profile              : LC
    Codec ID                    : 40
    Duration                    : 22mn 49s
    Bit rate mode               : Variable
    Bit rate                    : 176 Kbps
    Maximum bit rate            : 208 Kbps
    Channel(s)                  : 2 channels
    Channel positions           : Front: L R
    Sampling rate               : 48.0 KHz
    Frame rate                  : 46.875 fps (1024 spf)
    Compression mode            : Lossy
    Stream size                 : 28.7 MiB (14%)
    Encoded date                : UTC 2016-04-08 16:01:17
    Tagged date                 : UTC 2016-04-08 16:11:30


    Alle Mirrors untereinander kompatibel
    Folgen einzeln ladbar
    Folge 12/12 online


    Download

    Geschützter Bereich - Bedanke dich beim Poster, um den Bereich sehen zu können
    Hier erfährst Du wie Du Dich bedanken kannst oder werde jetzt Premium Mitglied ab einer Spende von 5€ und erhalte sofortigen Zugriff auf den Downloadbereich!


    Geändert von Filbo11 (2. July 2016 um 23:19 Uhr) Grund: folge 12 hinzugefügt somit komplett

    [Links sind nur für registrierte und aktivierte Nutzer sichtbar. Klicke hier um dich zu registrieren.]

    Ich wäre allen sehr dankbar, die mir gravierende Fehler in meinen Releases per PN melden

  2. 127 Benutzer sagen Danke:

    Anzeigen

    Aikanary (3. July 2016),Aikesh (10. April 2016),Aman87 (11. April 2016),Amraam (7. August 2016),Androkai (9. April 2016),ANg3el (16. August 2016),AnzuHirota (17. April 2016),Artheanos (2. May 2016),Asukaa (6. December 2016),Axel87 (3. October 2016),beckiiyy1 (14. June 2016),BK-201 (9. April 2016),blacky123 (17. June 2016),Blocker (9. April 2016),Blubyblub (17. April 2016),Bombur (9. April 2016),bra1nbug94 (23. April 2016),C3M-O- (1. November 2016),Cande (9. April 2016),ch1w4y (29. June 2016),CKSI (8. April 2016),coldbears48 (11. April 2016),Cú Chulainn (10. April 2016),DarkTerminator (11. April 2016),DarthToast (9. July 2016),dasgewissen (23. April 2016),dave_ (10. April 2016),duscha2925 (12. April 2016),farmerjoe (9. April 2016),FireFlame (10. April 2016),firefreeze (1. June 2016),foiderbua (22. April 2016),frankra (26. July 2016),Freezy (14. April 2016),Geisterhaendler (4. July 2016),Griever (25. October 2016),heikobaer (3. July 2016),hensor (5. July 2016),Hisamaki (4. August 2016),hisoka suzuya (23. April 2016),Hobbitgraf (10. April 2016),hoschie (15. April 2016),Icke (15. April 2016),imnuan (19. May 2016),insaine (16. May 2016),inst4gib (17. October 2016),IQcrack (8. April 2016),IRazziCz (30. May 2016),jesan6 (5. May 2016),JJGittes (18. April 2016),Julz (15. June 2016),Kalchi (30. July 2016),King-Loretta (23. May 2016),KingDing15 (14. April 2016),KiritoMazayo (23. April 2016),Kita_Kitsune (30. April 2016),Knuddelbearli (23. October 2016),knuffel (10. April 2016),Korihana (20. April 2016),Kortest (9. April 2016),Kradus (12. April 2016),krasserGaul (26. June 2016),Kuchiwa (17. April 2016),Kupan (31. August 2016),Lamperouge (30. July 2016),Loki92 (3. July 2016),LordBacon1 (9. May 2016),m!ke (23. April 2016),maddin1233 (23. April 2016),MegaMacX (9. August 2016),mic.spirit (16. June 2016),midnighter (24. June 2016),Mikyo (9. April 2016),mischacraft (15. April 2016),Mr.Shit (2. May 2016),mrtheloe (1. May 2016),msemi99 (2. September 2016),Nanatzusaya (18. May 2016),Neofite (4. July 2016),nickssystem (5. July 2016),paulito.1 (12. July 2016),Pitou (1. May 2016),prinzvegeta (7. August 2016),Psykzo (23. April 2016),Pyrien (8. July 2016),resitian (4. June 2016),Rin58 (15. April 2016),Rolledachpappe (26. July 2016),sangheilie (5. October 2016),sanjiblubb (30. November 2016),Seidou (21. April 2016),Sexmann (1. May 2016),Shi No Ryu (23. April 2016),Shugyosha (22. April 2016),Silkbrother (11. May 2016),Sirenetix (4. July 2016),Sirius (17. April 2016),SnowCat (3. July 2016),Sonicslash (28. June 2016),SONNYxq (23. April 2016),spielmacher9 (22. April 2016),Sporrdig (9. April 2016),SuperSaitama (9. April 2016),syncity (5. June 2016),SystemS (30. April 2016),syth (10. April 2016),TechaNexus (23. August 2016),ThaProduca (5. September 2016),TheWulf (9. July 2016),Tigerfish (10. April 2016),TUROcKK (29. April 2016),undertaker0951 (10. September 2016),Vinh (11. April 2016),Vstrike (17. April 2016),wasweisich (9. April 2016),windows8 (9. April 2016),Wölfchen (9. April 2016),xDarkness (11. April 2016),Xerx3s (16. July 2016),xEssentiaLx (15. June 2016),xhellsingx (31. October 2016),Xxchetahx (3. July 2016),xYuki (20. April 2016),Zap (2. May 2016),ZER0XIII (9. May 2016),ZeroCM89 (5. July 2016),zoe#449 (19. April 2016)

  3. #2
    Kami-sama Avatar von galudo
    Registriert seit
    Mar 2015
    Beiträge
    1.371
    Punkte
    26.007
    Errungenschaften:
    TomodachisTagger ProfiHyperaktivSenpaiGang Leader

    Koutetsujou no Kabaneri [Jap-Dub][Ger-Sub][720p][HDTV] - Pure-Anime

    Koutetsujou no Kabaneri
    甲鉄城のカバネリ
    Kabaneri of the Iron Fortress



    Kurzbeschreibung
    Die Welt befindet in der Mitte einer industriellen Revolution als ein nahezu unsterbliches Monster erscheint, das durch Infektionen Menschen in untote Kreaturen verwandelt, genannt Kabane. Die einzige Schwäche dieser Monster liegt in ihren Herzen, die allerdings durch eine dicke Schicht aus Eisen geschützt sind.
    Format: MP4
    Sprache: Japanisch
    Untertitel: Deutsch
    Genre: Actiondrama, Action, Drama, Fantasy
    Größe: ~ 220 MB pro Folge | Gesamtgröße: 2,75 GB
    Dauer: ~ 24 Minuten
    Jahr: 2016
    Video: 720p
    Source: HDTV
    Subgroup / Releasegroup: Pure-Anime

    Hoster: Share-Online | Uploaded
    Passwort: siehe unten
    Onlinestatus:


    Datei-Info
    Spoiler
    Code:
    General
    Complete name                  : Koutetsujou no Kabaneri - 01 - Die wandelnden Leichen.mp4
    Format                         : MPEG-4
    Format profile                 : Base Media
    Codec ID                       : isom
    File size                      : 205 MiB
    Duration                       : 22mn 49s
    Overall bit rate mode          : Variable
    Overall bit rate               : 1 253 Kbps
    Encoded date                   : UTC 2016-04-08 16:11:27
    Tagged date                    : UTC 2016-04-08 16:11:27
    
    Video
    ID                             : 1
    Format                         : AVC
    Format/Info                    : Advanced Video Codec
    Format profile                 : [email protected]
    Format settings, CABAC         : Yes
    Format settings, ReFrames      : 4 frames
    Codec ID                       : avc1
    Codec ID/Info                  : Advanced Video Coding
    Duration                       : 22mn 49s
    Bit rate                       : 1 072 Kbps
    Maximum bit rate               : 5 406 Kbps
    Width                          : 1 280 pixels
    Height                         : 720 pixels
    Display aspect ratio           : 16:9
    Frame rate mode                : Constant
    Frame rate                     : 23.976 fps
    Color space                    : YUV
    Chroma subsampling             : 4:2:0
    Bit depth                      : 8 bits
    Scan type                      : Progressive
    Bits/(Pixel*Frame)             : 0.049
    Stream size                    : 175 MiB (86%)
    Writing library                : x264 core 148 r2638 7599210
    Encoding settings              : cabac=1 / ref=3 / deblock=1:0:0 / analyse=0x3:0x113 / me=hex / subme=7 / psy=1 / psy_rd=1.00:0.00 / mixed_ref=1 / me_range=16 / chroma_me=1 / trellis=1 / 8x8dct=1 / cqm=0 / deadzone=21,11 / fast_pskip=1 / chroma_qp_offset=-2 / threads=12 / lookahead_threads=2 / sliced_threads=0 / nr=0 / decimate=1 / interlaced=0 / bluray_compat=0 / constrained_intra=0 / bframes=3 / b_pyramid=2 / b_adapt=1 / b_bias=0 / direct=1 / weightb=1 / open_gop=0 / weightp=2 / keyint=240 / keyint_min=23 / scenecut=40 / intra_refresh=0 / rc_lookahead=40 / rc=2pass / mbtree=1 / bitrate=1072 / ratetol=1.0 / qcomp=0.60 / qpmin=0 / qpmax=69 / qpstep=4 / cplxblur=20.0 / qblur=0.5 / ip_ratio=1.40 / aq=1:1.00
    Encoded date                   : UTC 2016-04-08 16:11:27
    Tagged date                    : UTC 2016-04-08 16:11:30
    
    Audio
    ID                             : 2
    Format                         : AAC
    Format/Info                    : Advanced Audio Codec
    Format profile                 : LC
    Codec ID                       : 40
    Duration                       : 22mn 49s
    Bit rate mode                  : Variable
    Bit rate                       : 176 Kbps
    Maximum bit rate               : 208 Kbps
    Channel(s)                     : 2 channels
    Channel positions              : Front: L R
    Sampling rate                  : 48.0 KHz
    Compression mode               : Lossy
    Stream size                    : 28.7 MiB (14%)
    Encoded date                   : UTC 2016-04-08 16:01:17
    Tagged date                    : UTC 2016-04-08 16:11:30


    Folgen 12 / 12 online
    Folgen einzeln ladbar



    || Download & Passwort ||


    Geschützter Bereich - Bedanke dich beim Poster, um den Bereich sehen zu können
    Hier erfährst Du wie Du Dich bedanken kannst oder werde jetzt Premium Mitglied ab einer Spende von 5€ und erhalte sofortigen Zugriff auf den Downloadbereich!

    Weitere Versionen von Koutetsujou no Kabaneri:
    [Links sind nur für registrierte und aktivierte Nutzer sichtbar. Klicke hier um dich zu registrieren.]
    [Links sind nur für registrierte und aktivierte Nutzer sichtbar. Klicke hier um dich zu registrieren.]
    [Links sind nur für registrierte und aktivierte Nutzer sichtbar. Klicke hier um dich zu registrieren.]
    Geändert von galudo (10. July 2016 um 21:40 Uhr) Grund: Folgenupdate
    SUPPORT UND REUP ANFRAGEN NUR >> [Links sind nur für registrierte und aktivierte Nutzer sichtbar. Klicke hier um dich zu registrieren.] <<
    Bitte IMMER den Thread-Link mitschicken.

  4. 39 Benutzer sagen Danke:

    B3nnoX (30. April 2016),BK-201 (9. April 2016),Bloodyair (10. May 2016),Bloodymight (21. May 2016),bumer12 (19. April 2016),Coji (9. April 2016),Cú Chulainn (10. April 2016),DarthToast (9. April 2016),etter (26. April 2016),farmerjoe (23. April 2016),Filbo11 (22. April 2016),foiderbua (22. April 2016),Frag0042 (9. April 2016),frankra (26. July 2016),GomuGomuNoRedHawk (9. April 2016),hisoka suzuya (16. April 2016),Holzmodem (29. May 2016),inst4gib (17. October 2016),krasserGaul (26. June 2016),LordBacon1 (9. May 2016),macis2013 (22. April 2016),Merkartor (1. October 2016),meyer (5. June 2016),midnighter (24. June 2016),Mikyo (9. April 2016),Mr.Shit (24. April 2016),msemi99 (11. April 2016),nickssystem (27. July 2016),pimpanse (9. April 2016),Rin58 (17. April 2016),Sgoku (13. April 2016),Shi No Ryu (23. April 2016),Shugyosha (22. April 2016),Sirius (17. April 2016),SONNYxq (23. April 2016),Sporrdig (22. April 2016),Vinh (22. May 2016),Vivere (23. April 2016),wasweisich (22. April 2016)

  5. #3
    Kami-sama Avatar von galudo
    Registriert seit
    Mar 2015
    Beiträge
    1.371
    Punkte
    26.007
    Errungenschaften:
    TomodachisTagger ProfiHyperaktivSenpaiGang Leader

    AW: Koutetsujou no Kabaneri [Laufend][Jap-Dub][Ger-Sub][720p][HDTV] - Pure-Anime

    Episode 02 Online
    SUPPORT UND REUP ANFRAGEN NUR >> [Links sind nur für registrierte und aktivierte Nutzer sichtbar. Klicke hier um dich zu registrieren.] <<
    Bitte IMMER den Thread-Link mitschicken.

  6. 1 Benutzer sagt Danke:

    SONNYxq (23. April 2016)

  7. #4
    Kami-sama Avatar von galudo
    Registriert seit
    Mar 2015
    Beiträge
    1.371
    Punkte
    26.007
    Errungenschaften:
    TomodachisTagger ProfiHyperaktivSenpaiGang Leader

    AW: Koutetsujou no Kabaneri [Laufend][Jap-Dub][Ger-Sub][720p][HDTV] - Pure-Anime

    Episode 03 Online
    SUPPORT UND REUP ANFRAGEN NUR >> [Links sind nur für registrierte und aktivierte Nutzer sichtbar. Klicke hier um dich zu registrieren.] <<
    Bitte IMMER den Thread-Link mitschicken.

  8. #5
    Uploader Avatar von Filbo11
    Registriert seit
    Jan 2015
    Beiträge
    931
    Punkte
    17.281
    Errungenschaften:
    TomodachisErste Gruppe1 Jahr registriertCreated Album picturesTagger First Class

    AW: Koutetsujou no Kabaneri [Laufend][Jap-Dub][Ger-Sub][720p][HDTV] - Pure-Anime

    folge 4 hinzugefügt

    [Links sind nur für registrierte und aktivierte Nutzer sichtbar. Klicke hier um dich zu registrieren.]

    Ich wäre allen sehr dankbar, die mir gravierende Fehler in meinen Releases per PN melden

  9. #6
    Uploader Avatar von Filbo11
    Registriert seit
    Jan 2015
    Beiträge
    931
    Punkte
    17.281
    Errungenschaften:
    TomodachisErste Gruppe1 Jahr registriertCreated Album picturesTagger First Class

    AW: Koutetsujou no Kabaneri [Laufend][Jap-Dub][Ger-Sub][720p][HDTV] - Pure-Anime

    folge 5 hinzugefügt

    [Links sind nur für registrierte und aktivierte Nutzer sichtbar. Klicke hier um dich zu registrieren.]

    Ich wäre allen sehr dankbar, die mir gravierende Fehler in meinen Releases per PN melden

  10. #7
    Kami-sama Avatar von galudo
    Registriert seit
    Mar 2015
    Beiträge
    1.371
    Punkte
    26.007
    Errungenschaften:
    TomodachisTagger ProfiHyperaktivSenpaiGang Leader

    AW: Koutetsujou no Kabaneri [Laufend][Jap-Dub][Ger-Sub][720p][HDTV] - Pure-Anime

    Episode 06 Online
    SUPPORT UND REUP ANFRAGEN NUR >> [Links sind nur für registrierte und aktivierte Nutzer sichtbar. Klicke hier um dich zu registrieren.] <<
    Bitte IMMER den Thread-Link mitschicken.

  11. #8
    Kami-sama Avatar von galudo
    Registriert seit
    Mar 2015
    Beiträge
    1.371
    Punkte
    26.007
    Errungenschaften:
    TomodachisTagger ProfiHyperaktivSenpaiGang Leader

    AW: Koutetsujou no Kabaneri [Laufend][Jap-Dub][Ger-Sub][720p][HDTV] - Pure-Anime

    Episode 07 Online
    SUPPORT UND REUP ANFRAGEN NUR >> [Links sind nur für registrierte und aktivierte Nutzer sichtbar. Klicke hier um dich zu registrieren.] <<
    Bitte IMMER den Thread-Link mitschicken.

  12. #9
    Uploader Avatar von Filbo11
    Registriert seit
    Jan 2015
    Beiträge
    931
    Punkte
    17.281
    Errungenschaften:
    TomodachisErste Gruppe1 Jahr registriertCreated Album picturesTagger First Class

    AW: Koutetsujou no Kabaneri [Laufend][Jap-Dub][Ger-Sub][720p][HDTV] - Pure-Anime

    folge 8 hinzugefügt

    [Links sind nur für registrierte und aktivierte Nutzer sichtbar. Klicke hier um dich zu registrieren.]

    Ich wäre allen sehr dankbar, die mir gravierende Fehler in meinen Releases per PN melden

  13. #10
    Uploader Avatar von Filbo11
    Registriert seit
    Jan 2015
    Beiträge
    931
    Punkte
    17.281
    Errungenschaften:
    TomodachisErste Gruppe1 Jahr registriertCreated Album picturesTagger First Class

    AW: Koutetsujou no Kabaneri [Laufend][Jap-Dub][Ger-Sub][720p][HDTV] - Pure-Anime

    folge 9 hinzugefügt

    [Links sind nur für registrierte und aktivierte Nutzer sichtbar. Klicke hier um dich zu registrieren.]

    Ich wäre allen sehr dankbar, die mir gravierende Fehler in meinen Releases per PN melden

  14. #11
    Uploader Avatar von Filbo11
    Registriert seit
    Jan 2015
    Beiträge
    931
    Punkte
    17.281
    Errungenschaften:
    TomodachisErste Gruppe1 Jahr registriertCreated Album picturesTagger First Class

    AW: Koutetsujou no Kabaneri [Laufend][Jap-Dub][Ger-Sub][720p][HDTV] - Pure-Anime

    folge 10 hinzugefügt

    [Links sind nur für registrierte und aktivierte Nutzer sichtbar. Klicke hier um dich zu registrieren.]

    Ich wäre allen sehr dankbar, die mir gravierende Fehler in meinen Releases per PN melden

  15. #12
    Uploader Avatar von Filbo11
    Registriert seit
    Jan 2015
    Beiträge
    931
    Punkte
    17.281
    Errungenschaften:
    TomodachisErste Gruppe1 Jahr registriertCreated Album picturesTagger First Class

    AW: Koutetsujou no Kabaneri [Laufend][Jap-Dub][Ger-Sub][720p][HDTV] - Pure-Anime

    folge 11 hinzugefügt

    [Links sind nur für registrierte und aktivierte Nutzer sichtbar. Klicke hier um dich zu registrieren.]

    Ich wäre allen sehr dankbar, die mir gravierende Fehler in meinen Releases per PN melden

  16. 1 Benutzer sagt Danke:

    krasserGaul (26. June 2016)

  17. #13
    Uploader Avatar von Filbo11
    Registriert seit
    Jan 2015
    Beiträge
    931
    Punkte
    17.281
    Errungenschaften:
    TomodachisErste Gruppe1 Jahr registriertCreated Album picturesTagger First Class

    AW: Koutetsujou no Kabaneri [Jap-Dub][Ger-Sub][720p][HDTV] - Pure-Anime

    folge 12 hinzugefügt somit komplett

    [Links sind nur für registrierte und aktivierte Nutzer sichtbar. Klicke hier um dich zu registrieren.]

    Ich wäre allen sehr dankbar, die mir gravierende Fehler in meinen Releases per PN melden

  18. 1 Benutzer sagt Danke:

    Pyrien (8. July 2016)

Stichworte

Lesezeichen

Berechtigungen

  • Neue Themen erstellen: Nein
  • Themen beantworten: Nein
  • Anhänge hochladen: Nein
  • Beiträge bearbeiten: Nein
  •  

1 2 3 4 5 6 7 8 9 10 11 12 13 14 15 16 17 18 19 20 21 22 23 24 25 26 27 28 29 30 31 32 33 34 35 36 37 38 39 40 41 42 43 44 45 46 47 48 49 50 51 52 53 54 55 56 57 58 59 60 61 62 63 64 65 66 67 68 69 70 71 72 73 74 75 76 77 78 79 80 81 82 83 84 85 86 87 88 89 90 91 92 93 94 95 96 97 98 99 100 101 102 103 104 105 106 107 108 109 110 111 112 113 114 115 116 117 118 119 120 121 122 123 124 125 126 127 128 129 130 131 132 133 134 135 136 137 138 139 140 141 142 143 144 145 146 147 148 149 150 151 152 153 154 155 156 157 158