Ergebnis 1 bis 1 von 1

Thema: To Love-Ru: Trouble + OVA [Jap-Dub][Ger-Sub][720p][HDTV]-NcS

Dieser Thread wurde noch nicht bewertet. Bewerte ihn doch, wenn er dir gefällt!
  1. #1
    United we Stand Avatar von 00Ryuji00
    Registriert seit
    Oct 2012
    Beiträge
    3.896
    Punkte
    99.519
    Errungenschaften:
    TomodachisGang LeaderHikikomoriTagger Amateur50000 Erfahrungspunkte

    To Love-Ru: Trouble + OVA [Jap-Dub][Ger-Sub][720p][HDTV]-NcS


    To Love-Ru: Trouble
    ToLoveRu






    Kurzbeschreibung:
    Zitat Zitat von AniSearch.com
    Die Story von To Love-Ru*handelt von Yuuki Rito, einem Highschool-Jungen, der es nicht schafft, Sairenji Haruna*seine Liebe zu gestehen. Eines Tages, als er nach Hause kommt und schmollend in der Badewanne sitzt, taucht ein nacktes Mädchen wie aus dem Nichts auf. Ihr Name ist Lala und sie kommt vom Planeten Deviluke, wo sie die Thronfolgerin ist. Ihr Vater möchte, dass sie wieder heimkehrt, damit sie einen seiner Hochzeitskandidaten heiraten kann. Doch sie entscheidet, dass sie lieber Rito zum Ehemann nehmen will, um auf der Erde zu bleiben....mehr


    Spieldauer: 24min
    Genre: Romantische Komödie
    Nebengenres: Action, Ecchi, Harem, Komödie, Romanze, Scifi
    Jahr: 2008
    Sprache: Japanisch
    Untertitel: Deutsch
    Größe pro Folge: ~325 MiB ~181 MiB
    Episodenanzahl: 26 /26 + 6/6
    Format: MKV, MP4
    Auflösung: 720p (16:9), 480p (16:9)
    Videocodec: x264 (AVC)
    Audiocodec: MPEG Audio, AAC
    Releasegruppe: NcS
    Hoster: Share-Online, Uploaded


    MediaInfo
    Serie
    Code:
    
    Format                                   : Matroska
    Format version                           : Version 1
    File size                                : 325 MiB
    Duration                                 : 24mn 10s
    Overall bit rate                         : 1 881 Kbps
    Encoded date                             : UTC 2008-06-08 11:56:07
    Writing application                      : mkvmerge v2.2.0 ('Turn It On Again') built on Mar  4 2008 12:58:26
    Writing library                          : libebml v0.7.7 + libmatroska v0.8.1
    
    Video
    ID                                       : 1
    Format                                   : AVC
    Format/Info                              : Advanced Video Codec
    Format profile                           : [email protected]
    Format settings, CABAC                   : Yes
    Format settings, ReFrames                : 3 frames
    Codec ID                                 : V_MPEG4/ISO/AVC
    Duration                                 : 24mn 10s
    Bit rate                                 : 1 717 Kbps
    Width                                    : 1 280 pixels
    Height                                   : 720 pixels
    Display aspect ratio                     : 16:9
    Frame rate mode                          : Constant
    Frame rate                               : 23.976 fps
    Color space                              : YUV
    Chroma subsampling                       : 4:2:0
    Bit depth                                : 8 bits
    Scan type                                : Progressive
    Bits/(Pixel*Frame)                       : 0.078
    Stream size                              : 291 MiB (90%)
    Writing library                          : x264 core 59 r859M ce13bb6
    Encoding settings                        : cabac=1 / ref=3 / deblock=1:0:0 / analyse=0x1:0x111 / me=hex / subme=5 / me-prepass=0 / brdo=0 / mixed_ref=0 / me_range=16 / chroma_me=1 / trellis=0 / 8x8dct=0 / cqm=0 / deadzone=21,11 / chroma_qp_offset=0 / threads=6 / nr=0 / decimate=1 / mbaff=0 / fgo=0 / bframes=3 / b_pyramid=1 / b_adapt=1 / b_bias=0 / direct=3 / wpredb=1 / bime=1 / keyint=250 / keyint_min=25 / scenecut=40(pre) / rc=2pass / bitrate=1717 / ratetol=1.0 / rceq='blurCplx^(1-qComp)' / qcomp=1.00 / qpmin=10 / qpmax=51 / qpstep=5 / cplxblur=20.0 / qblur=0.5 / ip_ratio=1.40 / pb_ratio=1.30 / aq=2:1.00
    Language                                 : English
    Default                                  : Yes
    Forced                                   : No
    
    Audio
    ID                                       : 2
    Format                                   : MPEG Audio
    Format version                           : Version 1
    Format profile                           : Layer 3
    Mode                                     : Joint stereo
    Mode extension                           : MS Stereo
    Codec ID                                 : A_MPEG/L3
    Codec ID/Hint                            : MP3
    Duration                                 : 24mn 10s
    Bit rate mode                            : Constant
    Bit rate                                 : 160 Kbps
    Channel(s)                               : 2 channels
    Sampling rate                            : 48.0 KHz
    Compression mode                         : Lossy
    Stream size                              : 27.7 MiB (9%)
    Title                                    : [NcS] To Love Ru 01
    Writing library                          : LAME3.98a
    Encoding settings                        : -m j -V 4 -q 3 -lowpass 17.5 -b 160
    Language                                 : Japanese
    Default                                  : Yes
    Forced                                   : No
    
    


    OVA
    Code:
    
    Format                                   : MPEG-4
    Format profile                           : Base Media
    Codec ID                                 : isom
    File size                                : 181 MiB
    Duration                                 : 25mn 4s
    Overall bit rate mode                    : Variable
    Overall bit rate                         : 1 010 Kbps
    Encoded date                             : UTC 2009-05-26 11:25:48
    Tagged date                              : UTC 2009-05-26 11:25:48
    
    Video
    ID                                       : 1
    Format                                   : AVC
    Format/Info                              : Advanced Video Codec
    Format profile                           : [email protected]
    Format settings, CABAC                   : Yes
    Format settings, ReFrames                : 6 frames
    Codec ID                                 : avc1
    Codec ID/Info                            : Advanced Video Coding
    Duration                                 : 25mn 4s
    Source duration                          : 3mn 36s
    Bit rate                                 : 879 Kbps
    Maximum bit rate                         : 2 661 Kbps
    Width                                    : 864 pixels
    Height                                   : 480 pixels
    Display aspect ratio                     : 16:9
    Frame rate mode                          : Constant
    Frame rate                               : 23.976 fps
    Color space                              : YUV
    Chroma subsampling                       : 4:2:0
    Bit depth                                : 8 bits
    Scan type                                : Progressive
    Bits/(Pixel*Frame)                       : 0.088
    Stream size                              : 158 MiB (87%)
    Source stream size                       : 158 MiB (87%)
    Writing library                          : x264 core 67 r1153M 7b6ce6a
    Encoding settings                        : cabac=1 / ref=6 / deblock=1:1:1 / analyse=0x3:0x133 / me=hex / subme=9 / psy_rd=1.0:0.0 / mixed_ref=1 / me_range=16 / chroma_me=1 / trellis=2 / 8x8dct=1 / cqm=0 / deadzone=21,11 / chroma_qp_offset=-2 / threads=3 / nr=0 / decimate=0 / mbaff=0 / bframes=3 / b_pyramid=1 / b_adapt=1 / b_bias=0 / direct=1 / wpredb=1 / keyint=250 / keyint_min=25 / scenecut=40 / rc=2pass / bitrate=879 / ratetol=1.0 / qcomp=0.60 / qpmin=10 / qpmax=51 / qpstep=4 / cplxblur=20.0 / qblur=0.5 / ip_ratio=1.40 / pb_ratio=1.30 / aq=1:1.00
    Encoded date                             : UTC 2009-05-26 06:57:53
    Tagged date                              : UTC 2009-05-26 11:26:05
    mdhd_Duration                            : 1504710
    
    Audio
    ID                                       : 2
    Format                                   : AAC
    Format/Info                              : Advanced Audio Codec
    Format profile                           : HE-AAC / LC
    Codec ID                                 : 40
    Duration                                 : 25mn 4s
    Bit rate mode                            : Variable
    Bit rate                                 : 128 Kbps
    Maximum bit rate                         : 137 Kbps
    Channel(s)                               : 2 channels
    Channel positions                        : Front: L R
    Sampling rate                            : 48.0 KHz / 24.0 KHz
    Compression mode                         : Lossy
    Stream size                              : 23.0 MiB (13%)
    Language                                 : Japanese
    Encoded date                             : UTC 2009-05-26 11:26:03
    Tagged date                              : UTC 2009-05-26 11:26:05
    
    






    Geschützter Bereich - Bedanke dich beim Poster, um den Bereich sehen zu können
    Hier erfährst Du wie Du Dich bedanken kannst oder werde jetzt Premium Mitglied ab einer Spende von 5€ und erhalte sofortigen Zugriff auf den Downloadbereich!

    [Links sind nur für registrierte und aktivierte Nutzer sichtbar. Klicke hier um dich zu registrieren.]
    !!!Alle Anliegen bezüglich Uploads werden nur mit direktem Threadlink zum Angebot bearbeitet!!!

    Re-Uploadanfragen nur per PN - Ihr könnt mir auch Listen schicken

    Re-Uploads erfolgen meist innerhalb 24h, kann aber auch bis zu 7 Tage dauern

    [Links sind nur für registrierte und aktivierte Nutzer sichtbar. Klicke hier um dich zu registrieren.] | [Links sind nur für registrierte und aktivierte Nutzer sichtbar. Klicke hier um dich zu registrieren.] | >[Links sind nur für registrierte und aktivierte Nutzer sichtbar. Klicke hier um dich zu registrieren.]<
    [Links sind nur für registrierte und aktivierte Nutzer sichtbar. Klicke hier um dich zu registrieren.]

  2. 35 Benutzer sagen Danke:

    Baschti1989 (24. August 2016),Belbo (13. June 2016),DedSec (19. August 2016),deofration (13. November 2016),Djangorain (19. July 2016),DjRayleigh (16. April 2016),fabio1221 (30. May 2016),frankra (8. September 2016),glasklar (1. June 2016),Gorshi (23. August 2016),Hedeki (26. April 2016),Holzmodem (1. December 2016),Kalchi (27. July 2016),Kortest (11. September 2016),Latyr (21. August 2016),Leopon (15. April 2016),markusdamon5 (25. April 2016),midnighter (21. June 2016),OLI10 (22. July 2016),parad0xr (2. August 2016),pp95 (28. June 2016),Regi (15. April 2016),S4nCh3z (17. June 2016),sansaku (21. April 2016),Sirenetix (29. June 2016),SnowCat (23. April 2016),Solinger34 (18. June 2016),SONNYxq (15. April 2016),Terrorhasii.x3 (18. June 2016),th3cr0w (2. September 2016),TheOne0815 (16. August 2016),UndeadBan (3. August 2016),XTIAN (12. July 2016),Ypselon (11. June 2016),Zaiphel (1. July 2016)

Lesezeichen

Berechtigungen

  • Neue Themen erstellen: Nein
  • Themen beantworten: Nein
  • Anhänge hochladen: Nein
  • Beiträge bearbeiten: Nein
  •  

1 2 3 4 5 6 7 8 9 10 11 12 13 14 15 16 17 18 19 20 21 22 23 24 25 26 27 28 29 30 31 32 33 34 35 36 37 38 39 40 41 42 43 44 45 46 47 48 49 50 51 52 53 54 55 56 57 58 59 60 61 62 63 64 65 66 67 68 69 70 71 72 73 74 75 76 77 78 79 80 81 82 83 84 85 86 87 88 89 90 91 92 93 94 95 96 97 98 99 100 101 102 103 104 105 106 107 108 109 110 111 112 113 114 115 116 117 118 119 120 121 122 123 124 125 126 127 128 129 130 131 132 133 134 135 136 137 138 139 140 141 142 143 144 145 146 147 148 149 150 151 152 153 154 155 156 157 158