Ergebnis 1 bis 1 von 1

Thema: Musaigen no Phantom World [Jap-Dub][Ger-Sub][720p/1080p][WebRip]-H0K

Dieser Thread wurde noch nicht bewertet. Bewerte ihn doch, wenn er dir gefällt!
  1. #1
    United we Stand Avatar von 00Ryuji00
    Registriert seit
    Oct 2012
    Beiträge
    3.902
    Punkte
    100.092
    Errungenschaften:
    TomodachisGang LeaderHikikomoriTagger Amateur50000 Erfahrungspunkte

    Musaigen no Phantom World [Jap-Dub][Ger-Sub][720p/1080p][WebRip]-H0K


    Musaigen no Phantom World
    Myriad Colors Phantom World






    Kurzbeschreibung:
    Zitat Zitat von AniSearch.com
    In der nahen Zukunft; in einer Welt geschaffen durch die Vorstellungskraft der Menschen,*besucht der Oberschüler*Haruhiko Ichijou die erste Klasse an der Hosea Academy. Geister- bzw.*monsterartige Wesen, die Phantome genannt werden, tauchen immer wieder auf.*Mai Kawakami*geht auf dieselbe Schule wie Haruhiko und bekämpft die Phantome mit ihrer Fähigkeit Spirit of Five Elements, genauso wie Izumi Reina, die über die Fähigkeit Phantom Eater verfügt und Koito Minase, welche die Phantome allein bekämpft. Gemeinsam erleben sie die Höhen und Tiefen des Schullebens, bis sie durch ein bestimmtes Ereignis zu der Wahrheit dieser Welt gelangen.


    Spieldauer: 24min
    Genre: Action
    Nebengenres: Action, Ecchi, Fantasy, Harem, Komödie
    Jahr: 2015
    Sprache: Japanisch
    Untertitel: Deutsch
    Größe pro Folge: ~374 MiB ~764 MiB ~764 MiB
    Episodenanzahl: 13/13
    Format: MP4
    Auflösung: 720p (16:9), 1080p (16:9)
    Videocodec: x264 (AVC)
    Audiocodec: AAC
    Releasegruppe: HelloKitty-Crew (Peppermint)
    Hoster: Share-Online, Uploaded


    MediaInfo
    720p
    Code:
    
    Format                                   : MPEG-4
    Format profile                           : Base Media / Version 2
    Codec ID                                 : mp42
    File size                                : 374 MiB
    Duration                                 : 23mn 46s
    Overall bit rate mode                    : Variable
    Overall bit rate                         : 2 199 Kbps
    Encoded date                             : UTC 2016-01-18 13:28:36
    Tagged date                              : UTC 2016-01-18 13:28:36
    
    Video
    ID                                       : 1
    Format                                   : AVC
    Format/Info                              : Advanced Video Codec
    Format profile                           : [email protected]
    Format settings, CABAC                   : Yes
    Format settings, ReFrames                : 5 frames
    Codec ID                                 : avc1
    Codec ID/Info                            : Advanced Video Coding
    Duration                                 : 23mn 46s
    Bit rate                                 : 2 035 Kbps
    Width                                    : 1 280 pixels
    Height                                   : 720 pixels
    Display aspect ratio                     : 16:9
    Frame rate mode                          : Constant
    Frame rate                               : 23.976 fps
    Color space                              : YUV
    Chroma subsampling                       : 4:2:0
    Bit depth                                : 8 bits
    Scan type                                : Progressive
    Bits/(Pixel*Frame)                       : 0.092
    Stream size                              : 346 MiB (93%)
    Writing library                          : x264 core 148 r11 7599210
    Encoding settings                        : cabac=1 / ref=5 / deblock=1:0:0 / analyse=0x3:0x113 / me=umh / subme=8 / psy=1 / psy_rd=1.00:0.00 / mixed_ref=1 / me_range=16 / chroma_me=1 / trellis=1 / 8x8dct=1 / cqm=0 / deadzone=21,11 / fast_pskip=1 / chroma_qp_offset=-2 / threads=22 / lookahead_threads=3 / sliced_threads=0 / nr=0 / decimate=1 / interlaced=0 / bluray_compat=0 / stitchable=1 / constrained_intra=0 / bframes=3 / b_pyramid=2 / b_adapt=2 / b_bias=0 / direct=3 / weightb=1 / open_gop=0 / weightp=2 / keyint=infinite / keyint_min=23 / scenecut=40 / intra_refresh=0 / rc_lookahead=50 / rc=crf / mbtree=1 / crf=20.0 / qcomp=0.60 / qpmin=5 / qpmax=69 / qpstep=4 / vbv_maxrate=2750 / vbv_bufsize=7500 / crf_max=0.0 / nal_hrd=none / filler=0 / ip_ratio=1.40 / aq=1:1.00
    Encoded date                             : UTC 2016-01-18 13:28:36
    Tagged date                              : UTC 2016-01-18 13:28:36
    Color range                              : Limited
    Color primaries                          : BT.709
    Transfer characteristics                 : BT.709
    Matrix coefficients                      : BT.709
    
    Audio
    ID                                       : 2
    Format                                   : AAC
    Format/Info                              : Advanced Audio Codec
    Format profile                           : LC
    Codec ID                                 : 40
    Duration                                 : 23mn 46s
    Bit rate mode                            : Variable
    Bit rate                                 : 160 Kbps
    Channel(s)                               : 2 channels
    Channel positions                        : Front: L R
    Sampling rate                            : 48.0 KHz
    Compression mode                         : Lossy
    Stream size                              : 27.2 MiB (7%)
    Encoded date                             : UTC 2016-01-18 13:28:36
    Tagged date                              : UTC 2016-01-18 13:28:36
    
    


    1080p
    Code:
    
    Format                                   : MPEG-4
    Format profile                           : Base Media / Version 2
    Codec ID                                 : mp42
    File size                                : 764 MiB
    Duration                                 : 23mn 46s
    Overall bit rate mode                    : Variable
    Overall bit rate                         : 4 494 Kbps
    Encoded date                             : UTC 2016-01-18 13:32:36
    Tagged date                              : UTC 2016-01-18 13:32:36
    
    Video
    ID                                       : 1
    Format                                   : AVC
    Format/Info                              : Advanced Video Codec
    Format profile                           : [email protected]
    Format settings, CABAC                   : Yes
    Format settings, ReFrames                : 4 frames
    Codec ID                                 : avc1
    Codec ID/Info                            : Advanced Video Coding
    Duration                                 : 23mn 46s
    Bit rate                                 : 4 234 Kbps
    Width                                    : 1 920 pixels
    Height                                   : 1 080 pixels
    Display aspect ratio                     : 16:9
    Frame rate mode                          : Constant
    Frame rate                               : 23.976 fps
    Color space                              : YUV
    Chroma subsampling                       : 4:2:0
    Bit depth                                : 8 bits
    Scan type                                : Progressive
    Bits/(Pixel*Frame)                       : 0.085
    Stream size                              : 720 MiB (94%)
    Writing library                          : x264 core 148 r11 7599210
    Encoding settings                        : cabac=1 / ref=4 / deblock=1:0:0 / analyse=0x3:0x113 / me=umh / subme=8 / psy=1 / psy_rd=1.00:0.00 / mixed_ref=1 / me_range=16 / chroma_me=1 / trellis=1 / 8x8dct=1 / cqm=0 / deadzone=21,11 / fast_pskip=1 / chroma_qp_offset=-2 / threads=34 / lookahead_threads=5 / sliced_threads=0 / nr=0 / decimate=1 / interlaced=0 / bluray_compat=0 / stitchable=1 / constrained_intra=0 / bframes=3 / b_pyramid=2 / b_adapt=2 / b_bias=0 / direct=3 / weightb=1 / open_gop=0 / weightp=2 / keyint=infinite / keyint_min=23 / scenecut=40 / intra_refresh=0 / rc_lookahead=50 / rc=crf / mbtree=1 / crf=20.0 / qcomp=0.60 / qpmin=5 / qpmax=69 / qpstep=4 / vbv_maxrate=4950 / vbv_bufsize=13500 / crf_max=0.0 / nal_hrd=none / filler=0 / ip_ratio=1.40 / aq=1:1.00
    Encoded date                             : UTC 2016-01-18 13:32:36
    Tagged date                              : UTC 2016-01-18 13:32:36
    Color range                              : Limited
    Color primaries                          : BT.709
    Transfer characteristics                 : BT.709
    Matrix coefficients                      : BT.709
    
    Audio
    ID                                       : 2
    Format                                   : AAC
    Format/Info                              : Advanced Audio Codec
    Format profile                           : LC
    Codec ID                                 : 40
    Duration                                 : 23mn 46s
    Bit rate mode                            : Variable
    Bit rate                                 : 256 Kbps
    Channel(s)                               : 2 channels
    Channel positions                        : Front: L R
    Sampling rate                            : 48.0 KHz
    Compression mode                         : Lossy
    Stream size                              : 43.5 MiB (6%)
    Encoded date                             : UTC 2016-01-18 13:32:36
    Tagged date                              : UTC 2016-01-18 13:32:36
    
    






    Geschützter Bereich - Bedanke dich beim Poster, um den Bereich sehen zu können
    Hier erfährst Du wie Du Dich bedanken kannst oder werde jetzt Premium Mitglied ab einer Spende von 5€ und erhalte sofortigen Zugriff auf den Downloadbereich!

    [Links sind nur für registrierte und aktivierte Nutzer sichtbar. Klicke hier um dich zu registrieren.]
    !!!Alle Anliegen bezüglich Uploads werden nur mit direktem Threadlink zum Angebot bearbeitet!!!

    Re-Uploadanfragen nur per PN - Ihr könnt mir auch Listen schicken

    Re-Uploads folgen nach Anfrage meist am Wochenende

    [Links sind nur für registrierte und aktivierte Nutzer sichtbar. Klicke hier um dich zu registrieren.] | [Links sind nur für registrierte und aktivierte Nutzer sichtbar. Klicke hier um dich zu registrieren.] | >[Links sind nur für registrierte und aktivierte Nutzer sichtbar. Klicke hier um dich zu registrieren.]<
    [Links sind nur für registrierte und aktivierte Nutzer sichtbar. Klicke hier um dich zu registrieren.]

  2. 88 Benutzer sagen Danke:

    Anzeigen

    Agros (7. July 2016),Akatsuki (5. April 2016),Amraam (1. May 2016),Anoand (22. April 2016),Asuka Langley (6. April 2016),Asukaa (4. September 2016),Besen 48 (22. November 2016),Blackfire89 (3. June 2016),Chris (10. October 2016),Chrissi89 (12. October 2016),Coji (20. April 2016),Cooky1988 (17. May 2016),Crash333 (10. April 2016),DarkTerminator (4. October 2016),Darth Affe (13. April 2016),DarthToast (11. April 2016),enfii (9. April 2016),eraz (5. April 2016),Flowbow (8. April 2016),Freaky-Ningen (23. May 2016),GammaWar (6. April 2016),Geisterhaendler (30. June 2016),GiftGasBaer (21. November 2016),goldratte (6. April 2016),hanfii (3. October 2016),Hedeki (16. April 2016),Heratix (13. May 2016),Hi im Shini (20. August 2016),Hixx (12. April 2016),Hoodyhood (1. July 2016),imnuan (2. May 2016),Isildor (16. July 2016),ItachiUchiha (5. June 2016),Jack (16. April 2016),kaemen (4. June 2016),Kalchi (27. July 2016),Kartox (6. April 2016),Katsura (30. May 2016),KelioN (28. May 2016),KevGraf94 (6. April 2016),Kita_Kitsune (19. April 2016),Kosuda-kun (4. August 2016),Kradus (6. April 2016),Kuraiko55 (11. April 2016),Kushikime (12. October 2016),lair1995 (8. May 2016),LawrenceKraft (13. April 2016),Lesyra (15. June 2016),Maxxo (7. April 2016),midnighter (24. June 2016),Miriweth (8. November 2016),Mosh (7. July 2016),Mr.Shit (4. September 2016),NHarmonia (10. October 2016),noizmaker (5. August 2016),old nick (24. September 2016),paulito.1 (5. June 2016),prinzvegeta (12. April 2016),Ravyn2805 (28. May 2016),redithebat (24. April 2016),Rikune (12. June 2016),RIMey (12. April 2016),S4nCh3z (2. September 2016),sangheilie (2. July 2016),Sebi859 (5. August 2016),Sepsis (26. April 2016),ShiboNoTenshi (1. August 2016),Sildurias (15. April 2016),Silkbrother (7. April 2016),Smitecrawler (28. April 2016),SnowCat (5. May 2016),SONNYxq (5. April 2016),Spotix (23. May 2016),Taiho (23. April 2016),TCSK61 (12. July 2016),Tekk (5. August 2016),tigerhai (9. April 2016),tokyodrift (4. May 2016),treffgarnix (16. May 2016),Usumaina (14. June 2016),Wakaba (12. April 2016),WaRRioR (8. April 2016),Windwusel (6. April 2016),xaxoxix (2. September 2016),xhellsingx (14. May 2016),Xxchetahx (16. May 2016),YamiXGhost (8. April 2016),zoe#449 (20. June 2016)

Lesezeichen

Berechtigungen

  • Neue Themen erstellen: Nein
  • Themen beantworten: Nein
  • Anhänge hochladen: Nein
  • Beiträge bearbeiten: Nein
  •  

1 2 3 4 5 6 7 8 9 10 11 12 13 14 15 16 17 18 19 20 21 22 23 24 25 26 27 28 29 30 31 32 33 34 35 36 37 38 39 40 41 42 43 44 45 46 47 48 49 50 51 52 53 54 55 56 57 58 59 60 61 62 63 64 65 66 67 68 69 70 71 72 73 74 75 76 77 78 79 80 81 82 83 84 85 86 87 88 89 90 91 92 93 94 95 96 97 98 99 100 101 102 103 104 105 106 107 108 109 110 111 112 113 114 115 116 117 118 119 120 121 122 123 124 125 126 127 128 129 130 131 132 133 134 135 136 137 138 139 140 141 142 143 144 145 146 147 148 149 150 151 152 153 154 155 156 157 158