Ergebnis 1 bis 1 von 1

Thema: Naruto German Subbed MP3 TVRip DivX - iND

Dieser Thread wurde noch nicht bewertet. Bewerte ihn doch, wenn er dir gefällt!
  1. #1
    Neuling auf Bewährung Avatar von BoeseBZ
    Registriert seit
    Apr 2014
    Beiträge
    2
    Punkte
    2.170
    Errungenschaften:
    1 Jahr registriert1000 Experience Points

    Naruto German Subbed MP3 TVRip DivX - iND


    Naruto
    GERMAN SUB



    --------------------------------------
    Größe: 36.10 GB | Parts: 520 MB @ 72 Stk.
    Archivtyp: *.rar | Typ nach dem Entpacken: *.AVI
    Sprache: Japanisch / Deutscher Untertitel
    Folgen: 220/220
    Releaser: iND
    Winrar5 gepackt | Bitte Winrar5 zum entpacken nutzen
    --------------------------------------


    Ein riesiges neunschwänziges Fuchsmonster greift das Dorf Konohagakure an und zerstört alles in seiner Umgebung. Viele tapfere Ninjas sterben bei dem Versuch ihre Familien zu beschützen und das Dorf zu verteidigen. Schließlich schafft es ein einzigartiger Ninja den Dämon zu bändigen und schließt ihn in den Körper eines Neugeborenen ein. Jedoch muss dieser Held, der Hokage der vierten Generation, einen hohen Preis zahlen. Er verliert sein Leben bei der Rettung des Dorfes.

    12 Jahre sind nach diesem Unglück vergangen, der Junge Naruto Uzumaki, ein etwas tollpatschiger Ninja, hat gerade seine erste Abschlussprüfung an der Ninja-Akademie bestanden. Nachdem er nun die erste Hürde auf dem Weg ein großer Ninja zu werden bestanden hat, macht er sich mit seinen beiden Freunden auf, um viele Missionen für das Dorf zu erledigen. An seiner Seite steht das junge Mädchen Sakura Haruno, in die Naruto unsterblich verliebt ist und der junge Musterschüler Sasuke Uchiha, in den wiederum Sakura unsterblich verliebt ist. Dies führt zu vielen spannenden und lustigen Situationen bei der Erfüllung ihrer Missionen.

    Qualität
    Code:
    General
    Format                                   : AVI
    Format/Info                              : Audio Video Interleave
    File size                                : 100 MiB
    Duration                                 : 23mn 3s
    Overall bit rate                         : 608 Kbps
    Writing library                          : VirtualDub build 13870/release
    
    Video
    ID                                       : 0
    Format                                   : MPEG-4 Visual
    Codec ID                                 : DIV3
    Codec ID/Hint                            : DivX 3 Low
    Duration                                 : 23mn 3s
    Bit rate                                 : 471 Kbps
    Width                                    : 640 pixels
    Height                                   : 480 pixels
    Display aspect ratio                     : 4:3
    Frame rate                               : 23.976 fps
    Color space                              : YUV
    Chroma subsampling                       : 4:2:0
    Bit depth                                : 8 bits
    Compression mode                         : Lossy
    Bits/(Pixel*Frame)                       : 0.064
    Stream size                              : 77.7 MiB (77%)
    
    Audio
    ID                                       : 1
    Format                                   : MPEG Audio
    Format version                           : Version 1
    Format profile                           : Layer 3
    Mode                                     : Joint stereo
    Mode extension                           : MS Stereo
    Codec ID                                 : 55
    Codec ID/Hint                            : MP3
    Duration                                 : 23mn 3s
    Bit rate mode                            : Constant
    Bit rate                                 : 128 Kbps
    Channel(s)                               : 2 channels
    Sampling rate                            : 48.0 KHz
    Compression mode                         : Lossy
    Stream size                              : 21.1 MiB (21%)
    Alignment                                : Split accross interleaves
    Interleave, duration                     : 42 ms (1.00 video frame)
    Interleave, preload duration             : 500 ms

    UPLOADED.NET


    Geschützter Bereich - Bedanke dich beim Poster, um den Bereich sehen zu können
    Hier erfährst Du wie Du Dich bedanken kannst oder werde jetzt Premium Mitglied ab einer Spende von 5€ und erhalte sofortigen Zugriff auf den Downloadbereich!



    Passwort: boesebz
    Bedanken nicht vergessen !
    Es liegt an euch, ob die Motivation bestehen bleibt.
    Geändert von BoeseBZ (13. June 2014 um 23:06 Uhr)

  2. 53 Benutzer sagen Danke:

    Anzeigen

    adinin (27. December 2014),Alaric (19. November 2014),Aracty (28. August 2014),Azuya (28. January 2015),Boendal (20. June 2014),colorado109 (11. August 2015),Corntendo (13. October 2015),crocker92 (3. January 2015),Crunk-State (27. January 2015),DaaFloH (20. October 2014),Dark Justice (21. September 2014),Failix_inactive (28. July 2015),fonomonochan (20. October 2014),FrozZenOnE (26. January 2015),Grimvar_inactive (2. December 2014),Haduken (22. October 2014),hnnnn (5. November 2015),iceman66216 (17. October 2014),JugoBetrugo (23. April 2015),knuffel (28. August 2015),krausi22 (8. October 2014),Lang (4. January 2015),LouBen3010 (17. July 2015),LuDeRu (6. September 2014),madmax916sps (1. September 2015),MegaKiller (3. October 2014),Megamani (23. October 2014),mischacraft (12. March 2015),NewPrime (17. June 2014),Neyzu (26. August 2014),nyuuke (7. September 2014),Princepolo (16. October 2014),Ramirez (30. March 2015),RapidKill (28. January 2015),Rawrlex (29. April 2015),rudizone (18. January 2015),Sanubo (10. February 2015),Sashiri (14. May 2015),SerienStream (31. August 2014),Shadowa (4. July 2015),Silencio (25. June 2015),SnowCat (14. June 2014),Stoffie (10. April 2015),Timberwolf (11. March 2016),tokyodrift (23. March 2015),warhammerx (30. January 2015),WayneBrady (18. July 2015),xEssentiaLx (13. February 2015),xxgamerxx596 (9. April 2015),Zaisen (18. June 2014),Zapzerap (21. February 2015),Zeigerful (29. December 2014)

Lesezeichen

Berechtigungen

  • Neue Themen erstellen: Nein
  • Themen beantworten: Nein
  • Anhänge hochladen: Nein
  • Beiträge bearbeiten: Nein
  •  

1 2 3 4 5 6 7 8 9 10 11 12 13 14 15 16 17 18 19 20 21 22 23 24 25 26 27 28 29 30 31 32 33 34 35 36 37 38 39 40 41 42 43 44 45 46 47 48 49 50 51 52 53 54 55 56 57 58 59 60 61 62 63 64 65 66 67 68 69 70 71 72 73 74 75 76 77 78 79 80 81 82 83 84 85 86 87 88 89 90 91 92 93 94 95 96 97 98 99 100 101 102 103 104 105 106 107 108 109 110 111 112 113 114 115 116 117 118 119 120 121 122 123 124 125 126 127 128 129 130 131 132 133 134 135 136 137 138 139 140 141 142 143 144 145 146 147 148 149 150 151 152 153 154 155 156 157 158