Ergebnis 1 bis 1 von 1

Thema: No Game No Life [Jap-Dub][Ger-Sub][720p][HDTV]

Dieser Thread wurde noch nicht bewertet. Bewerte ihn doch, wenn er dir gefällt!
  1. #1
    United we Stand Avatar von 00Ryuji00
    Registriert seit
    Oct 2012
    Beiträge
    3.902
    Punkte
    100.092
    Errungenschaften:
    TomodachisGang LeaderHikikomoriTagger Amateur50000 Erfahrungspunkte

    No Game No Life [Jap-Dub][Ger-Sub][720p][HDTV]

    No Game No Life
    ノーゲーム・ノーライフ
    NGNL
    nogenora






    Kurzbeschreibung:
    Das Internet ist voll von Gerüchten über die NEETs, Hikikomoris, Genies und gleichzeitig über die Geschwister Sora und Shiro. Die echte Welt ist in ihren Augen nur ein schlechtes Spiel. Doch eines Tages meldet sich eine Person bei ihnen, die sich "Gott" nennt und beschwört die beiden in eine Parallelwelt. Dort hat "Gott" den Krieg verboten und entschied, dass alles durch Spiele entschieden wird, sogar nationale Grenzen. Die menschliche Zivilisation umfasst nur noch eine einzige Stadt und wird von allen Seiten durch andere Arten bedrängt. Können Sora und Shiro, die sozialen Einsiedler, das Überleben der Menschen in dieser Parallelwelt sicherstellen?


    Sprache: Japanisch
    Untertitel: Deutsch
    Episodenanzahl: 12/12
    Format: .mp4
    Auflösung: 720p (16:9)
    Codec: x264
    Gruppe: Chinurarete-Subs
    Hoster: Share-Online ; Uploaded


    Datei Info:
    Spoiler

    Code:
    
    
    Format                                   : MPEG-4
    Format profile                           : Base Media
    Codec ID                                 : isom
    File size                                : 538 MiB
    Duration                                 : 23mn 45s
    Overall bit rate                         : 3 164 Kbps
    Writing application                      : Lavf54.63.104
    
    Video
    ID                                       : 1
    Format                                   : AVC
    Format/Info                              : Advanced Video Codec
    Format profile                           : [email protected]
    Format settings, CABAC                   : Yes
    Format settings, ReFrames                : 9 frames
    Codec ID                                 : avc1
    Codec ID/Info                            : Advanced Video Coding
    Duration                                 : 23mn 45s
    Bit rate                                 : 3 029 Kbps
    Width                                    : 1 280 pixels
    Height                                   : 720 pixels
    Display aspect ratio                     : 16:9
    Frame rate mode                          : Constant
    Frame rate                               : 23.976 fps
    Color space                              : YUV
    Chroma subsampling                       : 4:2:0
    Bit depth                                : 8 bits
    Scan type                                : Progressive
    Bits/(Pixel*Frame)                       : 0.137
    Stream size                              : 515 MiB (96%)
    Writing library                          : x264 core 122 r2184 5c85e0a
    Encoding settings                        : cabac=1 / ref=9 / deblock=1:0:0 / analyse=0x1:0x131 / me=umh / subme=11 / psy=1 / psy_rd=1.00:0.00 / mixed_ref=1 / me_range=40 / chroma_me=1 / trellis=2 / 8x8dct=0 / cqm=0 / deadzone=21,11 / fast_pskip=0 / chroma_qp_offset=-2 / threads=6 / sliced_threads=0 / nr=0 / decimate=0 / interlaced=0 / bluray_compat=0 / constrained_intra=0 / bframes=16 / b_pyramid=2 / b_adapt=2 / b_bias=0 / direct=1 / weightb=1 / open_gop=0 / weightp=2 / keyint=250 / keyint_min=23 / scenecut=40 / intra_refresh=0 / rc_lookahead=40 / rc=crf / mbtree=1 / crf=16.0 / qcomp=0.70 / qpmin=0 / qpmax=69 / qpstep=4 / ip_ratio=1.40 / aq=2:1.00
    
    Audio
    ID                                       : 2
    Format                                   : AAC
    Format/Info                              : Advanced Audio Codec
    Format profile                           : LC
    Codec ID                                 : 40
    Duration                                 : 23mn 45s
    Bit rate mode                            : Constant
    Bit rate                                 : 128 Kbps
    Channel count                            : 2 channels
    Channel positions                        : Front: L R
    Sampling rate                            : 44.1 KHz
    Compression mode                         : Lossy
    Stream size                              : 21.8 MiB (4%)
    Language                                 : Japanese
    
    





    Geschützter Bereich - Bedanke dich beim Poster, um den Bereich sehen zu können
    Hier erfährst Du wie Du Dich bedanken kannst oder werde jetzt Premium Mitglied ab einer Spende von 5€ und erhalte sofortigen Zugriff auf den Downloadbereich!
    !!!Alle Anliegen bezüglich Uploads werden nur mit direktem Threadlink zum Angebot bearbeitet!!!

    Re-Uploadanfragen nur per PN - Ihr könnt mir auch Listen schicken

    Re-Uploads folgen nach Anfrage meist am Wochenende

    [Links sind nur für registrierte und aktivierte Nutzer sichtbar. Klicke hier um dich zu registrieren.] | [Links sind nur für registrierte und aktivierte Nutzer sichtbar. Klicke hier um dich zu registrieren.] | >[Links sind nur für registrierte und aktivierte Nutzer sichtbar. Klicke hier um dich zu registrieren.]<
    [Links sind nur für registrierte und aktivierte Nutzer sichtbar. Klicke hier um dich zu registrieren.]

  2. 42 Benutzer sagen Danke:

    Ajaki_inactive (11. August 2015),animeathome (6. June 2016),basdi (5. February 2016),beckerm (3. November 2015),BlackOut84 (27. November 2015),blackshift (14. December 2015),brunsdumm (9. August 2015),Cloud002 (17. August 2015),Cony (12. December 2015),dkomm (9. May 2016),doN1337 (4. February 2016),Dylan (17. August 2015),FairySlay (9. August 2015),Flossel (3. October 2015),foxasult (6. December 2015),GoldenLight (25. September 2015),Griever (22. January 2016),Hyro (4. October 2016),Ingolf (4. October 2015),janik2009 (3. February 2016),Kalchi (20. April 2016),KingDing15 (2. September 2015),Kurzey (22. August 2015),LawMugen (11. August 2015),MegaKiller (8. January 2016),midnighter (12. August 2015),napalmklaus (23. September 2015),Rin58 (3. December 2015),robbryjo (14. February 2016),Schun (16. December 2015),skylier (21. August 2015),SlaughterSlender (22. August 2015),Soulblade (23. December 2015),Tex (27. December 2015),TheOne0815 (6. August 2016),TheYoAsakura (9. August 2015),Tidus18 (10. November 2015),tommey (16. November 2015),xhellsingx (26. January 2016),Xionic (14. February 2016),XXY (17. October 2015),Yukichan018 (24. October 2015)

Lesezeichen

Berechtigungen

  • Neue Themen erstellen: Nein
  • Themen beantworten: Nein
  • Anhänge hochladen: Nein
  • Beiträge bearbeiten: Nein
  •  

1 2 3 4 5 6 7 8 9 10 11 12 13 14 15 16 17 18 19 20 21 22 23 24 25 26 27 28 29 30 31 32 33 34 35 36 37 38 39 40 41 42 43 44 45 46 47 48 49 50 51 52 53 54 55 56 57 58 59 60 61 62 63 64 65 66 67 68 69 70 71 72 73 74 75 76 77 78 79 80 81 82 83 84 85 86 87 88 89 90 91 92 93 94 95 96 97 98 99 100 101 102 103 104 105 106 107 108 109 110 111 112 113 114 115 116 117 118 119 120 121 122 123 124 125 126 127 128 129 130 131 132 133 134 135 136 137 138 139 140 141 142 143 144 145 146 147 148 149 150 151 152 153 154 155 156 157 158