Ergebnis 1 bis 1 von 1

Thema: Ookami Shoujo to Kuro Ouji [Jap-Dub][Ger-Sub][720p][HDTV]

Dieser Thread wurde noch nicht bewertet. Bewerte ihn doch, wenn er dir gefällt!
  1. #1
    United we Stand Avatar von 00Ryuji00
    Registriert seit
    Oct 2012
    Beiträge
    3.902
    Punkte
    100.019
    Errungenschaften:
    TomodachisGang LeaderHikikomoriTagger Amateur50000 Erfahrungspunkte

    Ookami Shoujo to Kuro Ouji [Jap-Dub][Ger-Sub][720p][HDTV]

    Ookami Shoujo to Kuro Ouji
    オオカミ少女と黒王子
    Wolf Girl and Black Prince
    Wolf Girl & Black Prince






    Kurzbeschreibung:
    Die Oberschülerin Erika Shinohara versteht sich gut mit ihren beiden Freundinnen Marin Tachibana und Aki Tezuka. Die beiden Mädchen sind glücklich vergeben und Erika denkt, sie würde ausgeschlossen werden, wenn sie keinen Freund hat, und so gibt sie vor, sie sei ebenfalls vergeben. Als sie eines Tages jedoch ein Gespräch von Marin und Aki mitbekommt, in dem es um den ihnen noch unbekannten Freund Erikas geht, und sie betonen, dass sie an seiner Existenz zweifeln, gerät Erika in Panik und schießt in der Stadt ein Foto von einem unbekannten Hübschling. In der Schule zeigt sie ihren Freundinnen stolz das Foto, nur kommt ihnen der Junge sehr bekannt vor; er geht in die Parallelklasse. Erika erzählt ihm von dem Fehler, den sie begangen hat und er beschließt, ihr zu helfen und vorzugeben, ihr Freund zu sein – jedoch nur unter einer Bedingung...


    Sprache: Japanisch
    Untertitel: Deutsch
    Episodenanzahl: 12/12
    Format: .mp4
    Auflösung: 720p (16:9)
    Codec: x264
    Gruppe: AoiSora-Subs
    Hoster: Share-Online ; Uploaded


    Datei Info:
    Spoiler

    Code:
    
    
    Format                                   : MPEG-4
    Format profile                           : Base Media
    Codec ID                                 : isom
    File size                                : 326 MiB
    Duration                                 : 23mn 42s
    Overall bit rate mode                    : Variable
    Overall bit rate                         : 1 924 Kbps
    Encoded date                             : UTC 2014-10-14 13:21:02
    Tagged date                              : UTC 2014-10-14 13:21:02
    Writing application                      : Yamb 2.1.0.0 [http://yamb.unite-video.com]
    
    Video
    ID                                       : 1
    Format                                   : AVC
    Format/Info                              : Advanced Video Codec
    Format profile                           : [email protected]
    Format settings, CABAC                   : Yes
    Format settings, ReFrames                : 9 frames
    Codec ID                                 : avc1
    Codec ID/Info                            : Advanced Video Coding
    Duration                                 : 23mn 42s
    Bit rate                                 : 1 792 Kbps
    Maximum bit rate                         : 5 011 Kbps
    Width                                    : 1 280 pixels
    Height                                   : 720 pixels
    Display aspect ratio                     : 16:9
    Frame rate mode                          : Constant
    Frame rate                               : 23.976 fps
    Color space                              : YUV
    Chroma subsampling                       : 4:2:0
    Bit depth                                : 8 bits
    Scan type                                : Progressive
    Bits/(Pixel*Frame)                       : 0.081
    Stream size                              : 304 MiB (93%)
    Writing library                          : x264 core 142 r2409+42 04be48a tMod [[email protected] X86_64]
    Encoding settings                        : cabac=1 / ref=9 / deblock=1:0:0 / analyse=0x3:0x133 / me=umh / subme=9 / psy=1 / fade_compensate=0.00 / psy_rd=1.00:0.00 / mixed_ref=1 / me_range=32 / chroma_me=1 / trellis=2 / 8x8dct=1 / cqm=0 / deadzone=21,11 / fast_pskip=0 / chroma_qp_offset=-2 / threads=3 / lookahead_threads=1 / sliced_threads=0 / nr=0 / decimate=0 / interlaced=0 / bluray_compat=0 / constrained_intra=0 / fgo=0 / bframes=9 / b_pyramid=2 / b_adapt=2 / b_bias=0 / direct=3 / weightb=1 / open_gop=0 / weightp=2 / keyint=250 / keyint_min=23 / scenecut=40 / intra_refresh=0 / rc_lookahead=80 / rc=crf / mbtree=1 / crf=17.0000 / qcomp=0.80 / qpmin=0:0:0 / qpmax=69:69:69 / qpstep=4 / vbv_maxrate=2560 / vbv_bufsize=5120 / crf_max=0.0 / nal_hrd=none / filler=0 / ip_ratio=1.40 / aq=4:0.70 / aq-sensitivity=10.00 / aq-factor=1.00:1.00:1.00 / aq2=0 / aq3=0
    Encoded date                             : UTC 2014-10-15 13:18:17
    Tagged date                              : UTC 2014-10-14 13:21:16
    Color primaries                          : BT.709
    Transfer characteristics                 : BT.709
    Matrix coefficients                      : BT.709
    
    Audio
    ID                                       : 2
    Format                                   : AAC
    Format/Info                              : Advanced Audio Codec
    Format profile                           : LC
    Codec ID                                 : 40
    Duration                                 : 23mn 42s
    Bit rate mode                            : Variable
    Bit rate                                 : 128 Kbps
    Maximum bit rate                         : 136 Kbps
    Channel count                            : 2 channels
    Channel positions                        : Front: L R
    Sampling rate                            : 44.1 KHz
    Compression mode                         : Lossy
    Stream size                              : 21.7 MiB (7%)
    Encoded date                             : UTC 2014-10-14 13:21:14
    Tagged date                              : UTC 2014-10-14 13:21:16
    
    





    Geschützter Bereich - Bedanke dich beim Poster, um den Bereich sehen zu können
    Hier erfährst Du wie Du Dich bedanken kannst oder werde jetzt Premium Mitglied ab einer Spende von 5€ und erhalte sofortigen Zugriff auf den Downloadbereich!
    !!!Alle Anliegen bezüglich Uploads werden nur mit direktem Threadlink zum Angebot bearbeitet!!!

    Re-Uploadanfragen nur per PN - Ihr könnt mir auch Listen schicken

    Re-Uploads erfolgen meist innerhalb 24h, kann aber auch bis zu 7 Tage dauern

    [Links sind nur für registrierte und aktivierte Nutzer sichtbar. Klicke hier um dich zu registrieren.] | [Links sind nur für registrierte und aktivierte Nutzer sichtbar. Klicke hier um dich zu registrieren.] | >[Links sind nur für registrierte und aktivierte Nutzer sichtbar. Klicke hier um dich zu registrieren.]<
    [Links sind nur für registrierte und aktivierte Nutzer sichtbar. Klicke hier um dich zu registrieren.]

  2. 60 Benutzer sagen Danke:

    Anzeigen

    0815Reset (30. May 2016),Acreen (11. December 2015),Aizen-Sama (12. October 2015),Angel6500 (30. September 2015),Angel86 (14. May 2016),AnimeGirli (5. December 2015),BK201 (5. December 2015),BlackPhoenix (17. January 2016),Bloodrevenge (11. October 2015),Bunyos (9. August 2015),Cande (8. August 2015),curse2302 (1. September 2016),dionys (9. September 2016),Dova88 (11. September 2015),Dragon29 (8. June 2016),dreambird1973 (2. March 2016),Dreieckhard (27. November 2015),Dylan (5. May 2016),dzeko (21. February 2016),Garrus (6. June 2016),Griever (22. July 2016),Gromm (11. August 2015),Holyy (2. December 2015),huntercity (7. September 2015),JeNnI (22. May 2016),Kalchi (18. July 2016),kenschi (3. December 2016),KeXiuS (27. November 2015),KingDing15 (13. December 2015),Kiyohime (19. November 2015),Kojima (26. November 2016),LawrenceKraft (29. August 2015),Magikarp (11. October 2016),Meistermagier (15. November 2015),midnighter (12. August 2015),MINOTAURUS (1. January 2016),mischacraft (15. October 2015),nemo (7. December 2015),norby (13. January 2016),Numani (27. April 2016),Paraxamos (12. May 2016),passi (9. December 2015),Pazu (1. November 2016),Rittai (28. April 2016),sabs0686 (6. November 2016),SciTeC (17. August 2015),Sharan955 (5. January 2016),SheepEater (27. February 2016),Shirayah (29. January 2016),Shirobaka (14. January 2016),Sildurias (30. October 2015),Skully_88 (8. July 2016),Solinger34 (27. November 2015),sonic1992j (18. August 2015),SONNYxq (21. September 2015),Sylux (27. September 2015),Terrorhasii.x3 (2. August 2016),Tidus18 (18. August 2015),torusso12 (4. January 2016),weezy887 (27. November 2015)

Lesezeichen

Berechtigungen

  • Neue Themen erstellen: Nein
  • Themen beantworten: Nein
  • Anhänge hochladen: Nein
  • Beiträge bearbeiten: Nein
  •  

1 2 3 4 5 6 7 8 9 10 11 12 13 14 15 16 17 18 19 20 21 22 23 24 25 26 27 28 29 30 31 32 33 34 35 36 37 38 39 40 41 42 43 44 45 46 47 48 49 50 51 52 53 54 55 56 57 58 59 60 61 62 63 64 65 66 67 68 69 70 71 72 73 74 75 76 77 78 79 80 81 82 83 84 85 86 87 88 89 90 91 92 93 94 95 96 97 98 99 100 101 102 103 104 105 106 107 108 109 110 111 112 113 114 115 116 117 118 119 120 121 122 123 124 125 126 127 128 129 130 131 132 133 134 135 136 137 138 139 140 141 142 143 144 145 146 147 148 149 150 151 152 153 154 155 156 157 158