Ergebnis 1 bis 1 von 1

Thema: Psycho-Pass [Jap-Dub][Ger-Sub][720p][HDTV] - Pay-Subs / Tsun-Tsun-Subs

Dieser Thread wurde noch nicht bewertet. Bewerte ihn doch, wenn er dir gefällt!
  1. #1
    United we Stand Avatar von 00Ryuji00
    Registriert seit
    Oct 2012
    Beiträge
    3.902
    Punkte
    99.823
    Errungenschaften:
    TomodachisGang LeaderHikikomoriTagger Amateur50000 Erfahrungspunkte

    Psycho-Pass [Jap-Dub][Ger-Sub][720p][HDTV] - Pay-Subs / Tsun-Tsun-Subs


    Psycho-Pass
    サイコパス






    Kurzbeschreibung:
    Zitat Zitat von AniSearch.com
    Die Zukunft: Durch den technischen Fortschritt ist es nun möglich, das Gewaltpotential eines Menschen durch Analyse seiner Psyche festzustellen, weshalb man dazu übergegangen ist, die Bevölkerung laufend zu überwachen und ihre Daten im Psycho-Pass festzuhalten. All diejenigen, die einen bestimmten Wert überschreiten, werden festgenommen und therapiert oder in Härtefällen gleich eliminiert.

    Akane Tsunemori kommt frisch von der Polizeiakademie und wird den Enforcern zugeteilt, jener Einheit, die Jagd auf die potentiellen und wahrhaftigen Gewalttäter macht. Schnell muss sie feststellen, dass es sich bei ihrer neuen Einheit um ein hartes Pflaster handelt, setzt man doch selbst Kriminelle und Gewalttäter ein, um sich deren Wissen um das Verhalten solcher Leute zu Nutzen zu machen, immer mit der Gefahr im Hinterkopf, dass sie sich irgendwann selbst gegen ihre Einheit stellen könnten.


    Spieldauer: 23min
    Genre: Krimi
    Nebengenres: Action, Krimi, Scifi
    Jahr: 2012
    Sprache: Japanisch
    Untertitel: Deutsch
    Größe pro Folge: ~438 MiB ~414 MiB
    Episodenanzahl: 22/22
    Format: MP4
    Auflösung: 720p (16:9)
    Videocodec: x264 (AVC)
    Audiocodec: AAC
    Releasegruppe: Pay-Subs / Ab Folge 9: Tsun-Tsun-Subs
    Hoster: Share-Online, Uploaded


    MediaInfo
    Pay-Subs
    Code:
    
    Format                                   : MPEG-4
    Format profile                           : Base Media
    Codec ID                                 : isom
    File size                                : 438 MiB
    Duration                                 : 22mn 54s
    Overall bit rate mode                    : Variable
    Overall bit rate                         : 2 674 Kbps
    Encoded date                             : UTC 2012-12-05 17:27:37
    Tagged date                              : UTC 2012-12-05 17:27:37
    
    Video
    ID                                       : 1
    Format                                   : AVC
    Format/Info                              : Advanced Video Codec
    Format profile                           : [email protected]
    Format settings, CABAC                   : Yes
    Format settings, ReFrames                : 4 frames
    Codec ID                                 : avc1
    Codec ID/Info                            : Advanced Video Coding
    Duration                                 : 22mn 54s
    Bit rate                                 : 2 481 Kbps
    Maximum bit rate                         : 12.4 Mbps
    Width                                    : 1 280 pixels
    Height                                   : 720 pixels
    Display aspect ratio                     : 16:9
    Frame rate mode                          : Constant
    Frame rate                               : 23.976 fps
    Color space                              : YUV
    Chroma subsampling                       : 4:2:0
    Bit depth                                : 8 bits
    Scan type                                : Progressive
    Bits/(Pixel*Frame)                       : 0.112
    Stream size                              : 407 MiB (93%)
    Writing library                          : x264 core 129 r2230 1cffe9f
    Encoding settings                        : cabac=1 / ref=3 / deblock=1:0:0 / analyse=0x3:0x113 / me=hex / subme=7 / psy=1 / psy_rd=1.00:0.00 / mixed_ref=1 / me_range=16 / chroma_me=1 / trellis=1 / 8x8dct=1 / cqm=0 / deadzone=21,11 / fast_pskip=1 / chroma_qp_offset=-2 / threads=12 / lookahead_threads=2 / sliced_threads=0 / nr=0 / decimate=1 / interlaced=0 / bluray_compat=0 / constrained_intra=0 / bframes=3 / b_pyramid=2 / b_adapt=1 / b_bias=0 / direct=1 / weightb=1 / open_gop=0 / weightp=2 / keyint=240 / keyint_min=23 / scenecut=40 / intra_refresh=0 / rc=crf / mbtree=0 / crf=20.0 / qcomp=0.60 / qpmin=0 / qpmax=69 / qpstep=4 / ip_ratio=1.40 / pb_ratio=1.30 / aq=1:1.20
    Encoded date                             : UTC 2012-12-05 15:05:48
    Tagged date                              : UTC 2012-12-05 17:28:05
    
    Audio
    ID                                       : 2
    Format                                   : AAC
    Format/Info                              : Advanced Audio Codec
    Format profile                           : LC
    Codec ID                                 : 40
    Duration                                 : 22mn 54s
    Bit rate mode                            : Variable
    Bit rate                                 : 192 Kbps
    Maximum bit rate                         : 196 Kbps
    Channel(s)                               : 2 channels
    Channel positions                        : Front: L R
    Sampling rate                            : 48.0 KHz
    Compression mode                         : Lossy
    Stream size                              : 30.9 MiB (7%)
    Title                                    : Japanisch
    Language                                 : Japanese
    Encoded date                             : UTC 2012-12-05 17:28:04
    Tagged date                              : UTC 2012-12-05 17:28:05
    
    Menu
    00:00:00.000                             : Opening / Intro
    00:02:32.819                             : Hauptteil
    00:21:32.333                             : Ending
    
    


    Tsun-Tsun-Subs
    Code:
    
    Format                                   : MPEG-4
    Format profile                           : Base Media
    Codec ID                                 : isom
    File size                                : 414 MiB
    Duration                                 : 22mn 54s
    Overall bit rate mode                    : Variable
    Overall bit rate                         : 2 525 Kbps
    Encoded date                             : UTC 2012-12-23 05:44:57
    Tagged date                              : UTC 2012-12-23 05:44:57
    Writing application                      : Yamb 2.1.0.0 [http://yamb.unite-video.com]
    
    Video
    ID                                       : 1
    Format                                   : AVC
    Format/Info                              : Advanced Video Codec
    Format profile                           : [email protected]
    Format settings, CABAC                   : Yes
    Format settings, ReFrames                : 4 frames
    Codec ID                                 : avc1
    Codec ID/Info                            : Advanced Video Coding
    Duration                                 : 22mn 54s
    Bit rate                                 : 2 332 Kbps
    Maximum bit rate                         : 16.5 Mbps
    Width                                    : 1 280 pixels
    Height                                   : 720 pixels
    Display aspect ratio                     : 16:9
    Frame rate mode                          : Constant
    Frame rate                               : 23.976 fps
    Color space                              : YUV
    Chroma subsampling                       : 4:2:0
    Bit depth                                : 8 bits
    Scan type                                : Progressive
    Bits/(Pixel*Frame)                       : 0.106
    Stream size                              : 382 MiB (92%)
    Writing library                          : x264 core 125 r2200+677M 3a754e7
    Encoding settings                        : cabac=1 / ref=3 / deblock=1:0:0 / analyse=0x3:0x113 / me=umh / subme=7 / psy=1 / fade_compensate=0.00 / psy_rd=1.00:0.00 / mixed_ref=1 / me_range=16 / chroma_me=1 / trellis=1 / 8x8dct=1 / cqm=0 / deadzone=21,11 / fast_pskip=1 / chroma_qp_offset=-2 / threads=6 / lookahead_threads=1 / sliced_threads=0 / nr=0 / decimate=1 / interlaced=0 / bluray_compat=0 / constrained_intra=0 / fgo=0 / bframes=3 / b_pyramid=2 / b_adapt=1 / b_bias=0 / direct=1 / weightb=1 / open_gop=0 / weightp=2 / keyint=240 / keyint_min=23 / scenecut=40 / intra_refresh=0 / rc=crf / mbtree=0 / crf=20.0000 / qcomp=0.60 / qpmin=0 / qpmax=69 / qpstep=4 / ip_ratio=1.40 / pb_ratio=1.30 / aq=1:1.20
    Encoded date                             : UTC 2012-12-24 05:35:39
    Tagged date                              : UTC 2012-12-23 05:44:59
    
    Audio
    ID                                       : 2
    Format                                   : AAC
    Format/Info                              : Advanced Audio Codec
    Format profile                           : LC
    Codec ID                                 : 40
    Duration                                 : 22mn 54s
    Bit rate mode                            : Variable
    Bit rate                                 : 192 Kbps
    Maximum bit rate                         : 198 Kbps
    Channel(s)                               : 2 channels
    Channel positions                        : Front: L R
    Sampling rate                            : 48.0 KHz
    Compression mode                         : Lossy
    Stream size                              : 30.9 MiB (7%)
    Encoded date                             : UTC 2012-12-23 05:44:58
    Tagged date                              : UTC 2012-12-23 05:44:59
    
    






    Geschützter Bereich - Bedanke dich beim Poster, um den Bereich sehen zu können
    Hier erfährst Du wie Du Dich bedanken kannst oder werde jetzt Premium Mitglied ab einer Spende von 5€ und erhalte sofortigen Zugriff auf den Downloadbereich!

    [Links sind nur für registrierte und aktivierte Nutzer sichtbar. Klicke hier um dich zu registrieren.]
    !!!Alle Anliegen bezüglich Uploads werden nur mit direktem Threadlink zum Angebot bearbeitet!!!

    Re-Uploadanfragen nur per PN - Ihr könnt mir auch Listen schicken

    Re-Uploads erfolgen meist innerhalb 24h, kann aber auch bis zu 7 Tage dauern

    [Links sind nur für registrierte und aktivierte Nutzer sichtbar. Klicke hier um dich zu registrieren.] | [Links sind nur für registrierte und aktivierte Nutzer sichtbar. Klicke hier um dich zu registrieren.] | >[Links sind nur für registrierte und aktivierte Nutzer sichtbar. Klicke hier um dich zu registrieren.]<
    [Links sind nur für registrierte und aktivierte Nutzer sichtbar. Klicke hier um dich zu registrieren.]

  2. 8 Benutzer sagen Danke:

    CROYAL (25. October 2016),Das-Ying (26. November 2016),Flowbow (12. July 2016),Kalchi (8. July 2016),Korihana (2. October 2016),Kthulhut (7. September 2016),midnighter (2. August 2016),Timberwolf (20. November 2016)

Lesezeichen

Berechtigungen

  • Neue Themen erstellen: Nein
  • Themen beantworten: Nein
  • Anhänge hochladen: Nein
  • Beiträge bearbeiten: Nein
  •  

1 2 3 4 5 6 7 8 9 10 11 12 13 14 15 16 17 18 19 20 21 22 23 24 25 26 27 28 29 30 31 32 33 34 35 36 37 38 39 40 41 42 43 44 45 46 47 48 49 50 51 52 53 54 55 56 57 58 59 60 61 62 63 64 65 66 67 68 69 70 71 72 73 74 75 76 77 78 79 80 81 82 83 84 85 86 87 88 89 90 91 92 93 94 95 96 97 98 99 100 101 102 103 104 105 106 107 108 109 110 111 112 113 114 115 116 117 118 119 120 121 122 123 124 125 126 127 128 129 130 131 132 133 134 135 136 137 138 139 140 141 142 143 144 145 146 147 148 149 150 151 152 153 154 155 156 157 158