Ergebnis 1 bis 2 von 2

Thema: Rurouni Kenshin [Eingestellt][JapDub][GerSub][576p-8Bit/10Bit][DVDRip]

Dieser Thread wurde noch nicht bewertet. Bewerte ihn doch, wenn er dir gefällt!
  1. #1
    Kami-sama Avatar von galudo
    Registriert seit
    Mar 2015
    Beiträge
    1.369
    Punkte
    25.903
    Errungenschaften:
    TomodachisTagger ProfiHyperaktivSenpaiGang Leader

    Rurouni Kenshin [Eingestellt][JapDub][GerSub][576p-8Bit/10Bit][DVDRip]

    DIESER ANIME WURDE AUFGRUND DER LIZENZIERUNG VON DER FANSUBGRUPPE EINGESTELLT!
    Rurouni Kenshin
    るろうに剣心
    Samurai X



    Kurzbeschreibung
    Im Tokio des 19. Jahrhunderts taucht ein Vagabund namens Himura Kenshin auf. Kenshin ist einer der begabtesten Schwertkämpfer des Landes, doch hat er sich geschworen nie wieder einen anderen Menschen zu töten. Aus diesem Grund trägt er ein besonderes Schwert bei sich. In der Stadt angekommen trifft Kenshin auf Kaoru, die das Dojo und die Schwertkampfkunst ihres Vaters fortsetzen möchte.
    Format: MP4 bei 8 Bit | MKV bei 10 Bit
    Sprache: Japanisch
    Untertitel: Deutsch
    Genre: Abenteuer, Historisch, Martial-Arts, Samurai, Violence
    Größe bei 8Bit: ~ 230 MB pro Folge | Gesamtgröße: 2,88 GB
    Größe bei 10Bit: ~ 220 MB pro Folge | Gesamtgröße: 2,69 GB
    Dauer: ~ 25 Minuten
    Jahr: 1996-1998
    Video: 576p
    Source: DVD
    Subgroup / Releasegroup: Yorozuya Fansubs

    Hoster: Share-Online | Uploaded
    Passwort: siehe unten


    Datei-Info
    Spoiler
    8Bit
    Code:
    General
    Format                         : MPEG-4
    Format profile                 : Base Media
    Codec ID                       : isom
    File size                      : 241 MiB
    Duration                       : 23mn 33s
    Overall bit rate               : 1 432 Kbps
    
    Video
    ID                             : 1
    Format                         : AVC
    Format/Info                    : Advanced Video Codec
    Format profile                 : [email protected]
    Format settings, CABAC         : Yes
    Format settings, ReFrames      : 5 frames
    Codec ID                       : avc1
    Codec ID/Info                  : Advanced Video Coding
    Duration                       : 23mn 33s
    Bit rate                       : 1 109 Kbps
    Maximum bit rate               : 5 276 Kbps
    Width                          : 768 pixels
    Height                         : 576 pixels
    Display aspect ratio           : 4:3
    Frame rate mode                : Constant
    Frame rate                     : 23.976 fps
    Color space                    : YUV
    Chroma subsampling             : 4:2:0
    Bit depth                      : 8 bits
    Scan type                      : Progressive
    Bits/(Pixel*Frame)             : 0.105
    Stream size                    : 187 MiB (77%)
    Writing library                : x264 core 129 r2230 1cffe9f
    Encoding settings              : cabac=1 / ref=5 / deblock=1:-1:-1 / analyse=0x3:0x113 / me=umh / subme=9 / psy=1 / psy_rd=1.00:0.15 / mixed_ref=1 / me_range=24 / chroma_me=1 / trellis=1 / 8x8dct=1 / cqm=0 / deadzone=21,11 / fast_pskip=1 / chroma_qp_offset=-3 / threads=12 / lookahead_threads=2 / sliced_threads=0 / nr=0 / decimate=1 / interlaced=0 / bluray_compat=0 / constrained_intra=0 / bframes=3 / b_pyramid=2 / b_adapt=2 / b_bias=0 / direct=3 / weightb=1 / open_gop=0 / weightp=2 / keyint=250 / keyint_min=23 / scenecut=40 / intra_refresh=0 / rc_lookahead=50 / rc=crf / mbtree=1 / crf=19.0 / qcomp=0.60 / qpmin=0 / qpmax=69 / qpstep=4 / ip_ratio=1.40 / aq=1:1.00
    
    Audio
    ID                             : 2
    Format                         : AC-3
    Format/Info                    : Audio Coding 3
    Mode extension                 : CM (complete main)
    Format settings, Endianness    : Big
    Codec ID                       : ac-3
    Duration                       : 23mn 33s
    Bit rate mode                  : Constant
    Bit rate                       : 320 Kbps
    Channel(s)                     : 2 channels
    Channel positions              : Front: L R
    Sampling rate                  : 48.0 KHz
    Bit depth                      : 16 bits
    Compression mode               : Lossy
    Stream size                    : 53.9 MiB (22%)
    Language                       : Japanese
    
    Menu
    00:00:00.000                   : Opening
    00:01:33.510                   : Folge 01
    00:21:32.875                   : Ending
    00:23:12.850                   : Vorschau

    10Bit
    Code:
    General
    Format                         : Matroska
    Format version                 : Version 4 / Version 2
    File size                      : 221 MiB
    Duration                       : 23mn 33s
    Overall bit rate               : 1 311 Kbps
    Writing application            : mkvmerge v6.7.0 ('Back to the Ground') 32bit built on Jan  8 2014 15:03:17
    Writing library                : libebml v1.3.0 + libmatroska v1.4.1
    Attachements                   : CTMercuriusStd-Medium.otf
    
    Video
    ID                             : 1
    Format                         : AVC
    Format/Info                    : Advanced Video Codec
    Format profile                 : High [email protected]
    Format settings, CABAC         : Yes
    Format settings, ReFrames      : 5 frames
    Codec ID                       : V_MPEG4/ISO/AVC
    Duration                       : 23mn 33s
    Bit rate                       : 965 Kbps
    Width                          : 768 pixels
    Height                         : 576 pixels
    Display aspect ratio           : 4:3
    Frame rate mode                : Constant
    Frame rate                     : 23.976 fps
    Color space                    : YUV
    Chroma subsampling             : 4:2:0
    Bit depth                      : 10 bits
    Scan type                      : Progressive
    Bits/(Pixel*Frame)             : 0.091
    Stream size                    : 163 MiB (74%)
    Writing library                : x264 core 133 r2334 a3ac64b
    Encoding settings              : cabac=1 / ref=5 / deblock=1:-1:-1 / analyse=0x3:0x113 / me=umh / subme=9 / psy=1 / psy_rd=1.00:0.15 / mixed_ref=1 / me_range=24 / chroma_me=1 / trellis=1 / 8x8dct=1 / cqm=0 / deadzone=21,11 / fast_pskip=1 / chroma_qp_offset=-3 / threads=12 / lookahead_threads=1 / sliced_threads=0 / nr=0 / decimate=1 / interlaced=0 / bluray_compat=0 / constrained_intra=0 / bframes=3 / b_pyramid=2 / b_adapt=2 / b_bias=0 / direct=3 / weightb=1 / open_gop=0 / weightp=2 / keyint=250 / keyint_min=23 / scenecut=40 / intra_refresh=0 / rc_lookahead=50 / rc=crf / mbtree=1 / crf=19.0 / qcomp=0.60 / qpmin=0 / qpmax=81 / qpstep=4 / ip_ratio=1.40 / aq=1:1.00
    Language                       : Japanese
    Default                        : Yes
    Forced                         : No
    
    Audio
    ID                             : 2
    Format                         : AC-3
    Format/Info                    : Audio Coding 3
    Mode extension                 : CM (complete main)
    Format settings, Endianness    : Big
    Codec ID                       : A_AC3
    Duration                       : 23mn 33s
    Bit rate mode                  : Constant
    Bit rate                       : 320 Kbps
    Channel(s)                     : 2 channels
    Channel positions              : Front: L R
    Sampling rate                  : 48.0 KHz
    Bit depth                      : 16 bits
    Compression mode               : Lossy
    Stream size                    : 53.9 MiB (24%)
    Language                       : Japanese
    Default                        : Yes
    Forced                         : No
    
    Text
    ID                             : 3
    Format                         : ASS
    Codec ID                       : S_TEXT/ASS
    Codec ID/Info                  : Advanced Sub Station Alpha
    Compression mode               : Lossless
    Language                       : German
    Default                        : Yes
    Forced                         : No
    
    Menu
    00:00:00.000                   : :Opening
    00:01:33.510                   : :Folge 01
    00:21:32.875                   : :Ending
    00:23:12.850                   : :Vorschau



    Folgen 13 / 94 online
    Folgen einzeln ladbar



    || Download & Passwort ||


    Geschützter Bereich - Bedanke dich beim Poster, um den Bereich sehen zu können
    Hier erfährst Du wie Du Dich bedanken kannst oder werde jetzt Premium Mitglied ab einer Spende von 5€ und erhalte sofortigen Zugriff auf den Downloadbereich!
    Geändert von galudo (22. January 2016 um 01:44 Uhr) Grund: Fansubgruppe hat das Subben aufgrund der Lizenzierung des Animes eingestellt
    SUPPORT UND REUP ANFRAGEN NUR >> [Links sind nur für registrierte und aktivierte Nutzer sichtbar. Klicke hier um dich zu registrieren.] <<
    Bitte IMMER den Thread-Link mitschicken.

  2. 18 Benutzer sagen Danke:

    Ace360 (10. January 2016),adinin (29. November 2015),alecander (11. September 2015),darksera (21. November 2015),Etho89 (17. September 2015),folgar (11. September 2015),hanismustismann (16. November 2015),Kalchi (21. July 2016),midnighter (22. September 2015),MrSuicideSheeep (28. February 2016),Oedner (26. February 2016),Oidem (8. December 2015),prinzvegeta (1. November 2015),Robin88 (22. October 2015),Shadowa (19. January 2016),Silkbrother (10. February 2016),Solinger34 (21. January 2016),tokyodrift (18. October 2015)

  3. #2
    Kami-sama Avatar von galudo
    Registriert seit
    Mar 2015
    Beiträge
    1.369
    Punkte
    25.903
    Errungenschaften:
    TomodachisTagger ProfiHyperaktivSenpaiGang Leader

    AW: Rurouni Kenshin [JapDub][GerSub][576p-8Bit/10Bit][DVD]

    Episode 13 Online
    SUPPORT UND REUP ANFRAGEN NUR >> [Links sind nur für registrierte und aktivierte Nutzer sichtbar. Klicke hier um dich zu registrieren.] <<
    Bitte IMMER den Thread-Link mitschicken.

Stichworte

Lesezeichen

Berechtigungen

  • Neue Themen erstellen: Nein
  • Themen beantworten: Nein
  • Anhänge hochladen: Nein
  • Beiträge bearbeiten: Nein
  •  

1 2 3 4 5 6 7 8 9 10 11 12 13 14 15 16 17 18 19 20 21 22 23 24 25 26 27 28 29 30 31 32 33 34 35 36 37 38 39 40 41 42 43 44 45 46 47 48 49 50 51 52 53 54 55 56 57 58 59 60 61 62 63 64 65 66 67 68 69 70 71 72 73 74 75 76 77 78 79 80 81 82 83 84 85 86 87 88 89 90 91 92 93 94 95 96 97 98 99 100 101 102 103 104 105 106 107 108 109 110 111 112 113 114 115 116 117 118 119 120 121 122 123 124 125 126 127 128 129 130 131 132 133 134 135 136 137 138 139 140 141 142 143 144 145 146 147 148 149 150 151 152 153 154 155 156 157 158