Ergebnis 1 bis 6 von 6

Thema: Saijaku Muhai no Bahamut [Eingestellt][Jap-Dub][Ger-Sub][720p][HDTV] - Pure-Anime

Dieser Thread wurde noch nicht bewertet. Bewerte ihn doch, wenn er dir gefällt!
  1. #1
    Uploader Avatar von Filbo11
    Registriert seit
    Jan 2015
    Beiträge
    926
    Punkte
    17.174
    Errungenschaften:
    TomodachisErste Gruppe1 Jahr registriertCreated Album picturesTagger First Class

    Saijaku Muhai no Bahamut [Eingestellt][Jap-Dub][Ger-Sub][720p][HDTV] - Pure-Anime

    Saijaku Muhai no Bahamut
    最弱無敗の神装機竜
    Undefeated Bahamut Chronicle
    Saijaku Muhai no Shinsou Kiryuu




    Beschreibung

    Die Geschichte handelt vom ehemaligen Prinzen des Reiches Arcadia, Lux, welches jedoch in einer Revolution vor fünf Jahren gestürzt wurde. Als Lux versehentlich in einem Badesaal den Schlafbereich für Frauen betritt und hierbei die neue Prinzessin Lisesharte nackt sieht, entfacht er nicht nur ihren Zorn, sondern befindet sich prompt auch in einem Drag-Ride-Duell mit ihr. Bei Drag-Rides handelt es sich um alte gepanzerte Waffen, die in Ruinen auf der Welt verteilt gefunden wurden. Nach seinem Duell mit Lisesharte, beginnt Lux - mehr oder minder freiwillig - eine reine Frauen-Akademie zu besuchen, welche Adlige zu Drag-Rittern ausbildet.


    Format: MP4
    Dauer: ca. 24 min
    Größe: ca. 213 MB
    Sprache: Japanisch
    Untertitel: Deutsch
    Releaser: [Pure-Anime]
    Hoster: Uploaded.net & Share-Online.biz
    kein PW


    Screenshots & Info

    Spoiler
    [Links sind nur für registrierte und aktivierte Nutzer sichtbar. Klicke hier um dich zu registrieren.]

    Code:
    General
    Complete name               : [Pure-Ani.me]Saijaku Muhai no Bahamut 01 Ger Sub.mp4
    Format                      : MPEG-4
    Format profile              : Base Media
    Codec ID                    : isom (isom/avc1/iso6)
    File size                   : 213 MiB
    Duration                    : 23mn 51s
    Overall bit rate mode       : Variable
    Overall bit rate            : 1 251 Kbps
    Encoded date                : UTC 2016-01-16 15:11:35
    Tagged date                 : UTC 2016-01-16 15:11:35
    
    Video
    ID                          : 1
    Format                      : AVC
    Format/Info                 : Advanced Video Codec
    Format profile              : [email protected]
    Format settings, CABAC      : Yes
    Format settings, ReFrames   : 4 frames
    Codec ID                    : avc1
    Codec ID/Info               : Advanced Video Coding
    Duration                    : 23mn 50s
    Bit rate                    : 1 091 Kbps
    Maximum bit rate            : 6 544 Kbps
    Width                       : 1 280 pixels
    Height                      : 720 pixels
    Display aspect ratio        : 16:9
    Frame rate mode             : Constant
    Frame rate                  : 23.976 (24000/1001) fps
    Color space                 : YUV
    Chroma subsampling          : 4:2:0
    Bit depth                   : 8 bits
    Scan type                   : Progressive
    Bits/(Pixel*Frame)          : 0.049
    Stream size                 : 186 MiB (87%)
    Writing library             : x264 core 148 r2638 7599210
    Encoding settings           : cabac=1 / ref=2 / deblock=1:0:0 / analyse=0x3:0x113 / me=hex / subme=4 / psy=1 / psy_rd=1.00:0.00 / mixed_ref=0 / me_range=16 / chroma_me=1 / trellis=1 / 8x8dct=1 / cqm=0 / deadzone=21,11 / fast_pskip=1 / chroma_qp_offset=0 / threads=12 / lookahead_threads=3 / sliced_threads=0 / nr=0 / decimate=1 / interlaced=0 / bluray_compat=0 / constrained_intra=0 / bframes=3 / b_pyramid=2 / b_adapt=1 / b_bias=0 / direct=1 / weightb=1 / open_gop=0 / weightp=1 / keyint=240 / keyint_min=23 / scenecut=40 / intra_refresh=0 / rc_lookahead=20 / rc=2pass / mbtree=1 / bitrate=1091 / ratetol=1.0 / qcomp=0.60 / qpmin=0 / qpmax=69 / qpstep=4 / cplxblur=20.0 / qblur=0.5 / ip_ratio=1.40 / aq=1:1.00
    Encoded date                : UTC 2016-01-16 15:11:35
    Tagged date                 : UTC 2016-01-16 15:11:38
    
    Audio
    ID                          : 2
    Format                      : AAC
    Format/Info                 : Advanced Audio Codec
    Format profile              : LC
    Codec ID                    : 40
    Duration                    : 23mn 51s
    Bit rate mode               : Variable
    Bit rate                    : 157 Kbps
    Maximum bit rate            : 202 Kbps
    Channel(s)                  : 2 channels
    Channel positions           : Front: L R
    Sampling rate               : 48.0 KHz
    Frame rate                  : 46.875 fps (1024 spf)
    Compression mode            : Lossy
    Stream size                 : 26.8 MiB (13%)
    Encoded date                : UTC 2016-01-16 14:55:04
    Tagged date                 : UTC 2016-01-16 15:11:38


    Alle Mirrors untereinander kompatibel
    Folgen einzeln ladbar
    Folge 6/12 online


    Download

    Geschützter Bereich - Bedanke dich beim Poster, um den Bereich sehen zu können
    Hier erfährst Du wie Du Dich bedanken kannst oder werde jetzt Premium Mitglied ab einer Spende von 5€ und erhalte sofortigen Zugriff auf den Downloadbereich!


    Geändert von Filbo11 (13. March 2016 um 18:33 Uhr) Grund: folge 6 hinzugefügt

    [Links sind nur für registrierte und aktivierte Nutzer sichtbar. Klicke hier um dich zu registrieren.]

    Ich wäre allen sehr dankbar, die mir gravierende Fehler in meinen Releases per PN melden

  2. 25 Benutzer sagen Danke:

    Axel87 (30. January 2016),Bloodyair (26. February 2016),bra1nbug94 (16. January 2016),Bunyos (16. January 2016),Chaosphere (27. February 2016),DarthToast (30. January 2016),DerZero (17. February 2016),DivinRule (16. January 2016),enfii (16. January 2016),foiderbua (16. January 2016),Gatti1983 (13. April 2016),Ignasum (26. February 2016),julian.schuh (16. January 2016),Kalchi (25. July 2016),krasserGaul (16. January 2016),LordBacon1 (26. February 2016),Lyres (2. February 2016),midnighter (24. January 2016),mOlDaViA (2. March 2016),okzide (16. January 2016),old nick (16. January 2016),Proton2065 (19. January 2016),rekiznuh1 (17. January 2016),Ronae (16. January 2016),Zap (18. January 2016)

  3. #2
    Uploader Avatar von Filbo11
    Registriert seit
    Jan 2015
    Beiträge
    926
    Punkte
    17.174
    Errungenschaften:
    TomodachisErste Gruppe1 Jahr registriertCreated Album picturesTagger First Class

    AW: Saijaku Muhai no Bahamut [Jap-Dub][Ger-Sub][720p][WebRip] - Pure-Anime

    folge 2 hinzugefügt

    [Links sind nur für registrierte und aktivierte Nutzer sichtbar. Klicke hier um dich zu registrieren.]

    Ich wäre allen sehr dankbar, die mir gravierende Fehler in meinen Releases per PN melden

  4. #3
    Uploader Avatar von Filbo11
    Registriert seit
    Jan 2015
    Beiträge
    926
    Punkte
    17.174
    Errungenschaften:
    TomodachisErste Gruppe1 Jahr registriertCreated Album picturesTagger First Class

    AW: Saijaku Muhai no Bahamut [Jap-Dub][Ger-Sub][720p][WebRip] - Pure-Anime

    folge 3 hinzugefügt

    [Links sind nur für registrierte und aktivierte Nutzer sichtbar. Klicke hier um dich zu registrieren.]

    Ich wäre allen sehr dankbar, die mir gravierende Fehler in meinen Releases per PN melden

  5. #4
    Uploader Avatar von Filbo11
    Registriert seit
    Jan 2015
    Beiträge
    926
    Punkte
    17.174
    Errungenschaften:
    TomodachisErste Gruppe1 Jahr registriertCreated Album picturesTagger First Class

    AW: Saijaku Muhai no Bahamut [Laufend][Jap-Dub][Ger-Sub][720p][WebRip] - Pure-Anime

    folge 4 hinzugefügt

    [Links sind nur für registrierte und aktivierte Nutzer sichtbar. Klicke hier um dich zu registrieren.]

    Ich wäre allen sehr dankbar, die mir gravierende Fehler in meinen Releases per PN melden

  6. #5
    Uploader Avatar von Filbo11
    Registriert seit
    Jan 2015
    Beiträge
    926
    Punkte
    17.174
    Errungenschaften:
    TomodachisErste Gruppe1 Jahr registriertCreated Album picturesTagger First Class

    AW: Saijaku Muhai no Bahamut [Laufend][Jap-Dub][Ger-Sub][720p][WebRip] - Pure-Anime

    folge 5 hinzugefügt

    [Links sind nur für registrierte und aktivierte Nutzer sichtbar. Klicke hier um dich zu registrieren.]

    Ich wäre allen sehr dankbar, die mir gravierende Fehler in meinen Releases per PN melden

  7. #6
    Uploader Avatar von Filbo11
    Registriert seit
    Jan 2015
    Beiträge
    926
    Punkte
    17.174
    Errungenschaften:
    TomodachisErste Gruppe1 Jahr registriertCreated Album picturesTagger First Class

    AW: Saijaku Muhai no Bahamut [Laufend][Jap-Dub][Ger-Sub][720p][HDTV] - Pure-Anime

    folge 6 hinzugefügt

    [Links sind nur für registrierte und aktivierte Nutzer sichtbar. Klicke hier um dich zu registrieren.]

    Ich wäre allen sehr dankbar, die mir gravierende Fehler in meinen Releases per PN melden

Stichworte

Lesezeichen

Berechtigungen

  • Neue Themen erstellen: Nein
  • Themen beantworten: Nein
  • Anhänge hochladen: Nein
  • Beiträge bearbeiten: Nein
  •  

1 2 3 4 5 6 7 8 9 10 11 12 13 14 15 16 17 18 19 20 21 22 23 24 25 26 27 28 29 30 31 32 33 34 35 36 37 38 39 40 41 42 43 44 45 46 47 48 49 50 51 52 53 54 55 56 57 58 59 60 61 62 63 64 65 66 67 68 69 70 71 72 73 74 75 76 77 78 79 80 81 82 83 84 85 86 87 88 89 90 91 92 93 94 95 96 97 98 99 100 101 102 103 104 105 106 107 108 109 110 111 112 113 114 115 116 117 118 119 120 121 122 123 124 125 126 127 128 129 130 131 132 133 134 135 136 137 138 139 140 141 142 143 144 145 146 147 148 149 150 151 152 153 154 155 156 157 158