Ergebnis 1 bis 6 von 6

Thema: Sakurako-san no Ashimoto ni wa Shitai ga Umatteiru [Eingestellt][Jap-Dub][Ger-Sub][720p][8Bit/10Bit][HDTV] - Chinurarete-Subs

Dieser Thread wurde noch nicht bewertet. Bewerte ihn doch, wenn er dir gefällt!
  1. #1
    United we Stand Avatar von 00Ryuji00
    Registriert seit
    Oct 2012
    Beiträge
    3.896
    Punkte
    99.716
    Errungenschaften:
    TomodachisGang LeaderHikikomoriTagger Amateur50000 Erfahrungspunkte

    Sakurako-san no Ashimoto ni wa Shitai ga Umatteiru [Eingestellt][Jap-Dub][Ger-Sub][720p][8Bit/10Bit][HDTV] - Chinurarete-Subs

    Sakurako-san no Ashimoto ni wa Shitai ga Umatteiru
    櫻子さんの足下には死体が埋まっている
    Beautiful Bones: Sakurako’s Investigation
    A Corpse is Buried Under Sakurako's Feet



    Kurzbeschreibung:
    Zitat Zitat von AniSearch.com
    Die Mittzwanzigerin Sakurako Kujyou ist eine außerordentlich schöne Frau. Sie ist in einer reichen Familie aufgewachsen, die "schöne Knochen" besonders liebt. Ihr Freund Shoutarou Tatewaki gibt gerne mit Sakurako an, doch eigentlich ist er nur ein normaler Oberschüler mit einem sehr ernsten Benehmen. Das Pärchen lebt in Asahikawa, einer Stadt in Hokkaido, und sie werden in verschiedene Vorfälle hineingezogen, die allesamt etwas mit Knochen zu tun haben.
    Spieldauer: ~ 24min
    Genre: Krimi
    Nebengenres: Abenteuer, Action, Krimi, Mystery, Männlich
    Jahr: 2015
    Sprache: Japanisch
    Untertitel: Deutsch
    Größe pro Folge: ~ 370MB/360MB
    Episodenanzahl: 04/12
    Format: MP4, MKV
    Auflösung: 720p (16:9)
    Videocodec: x264 (AVC), 8Bit/10Bit
    Audiocodec: AAC
    Releasegruppe: Chinurarete-Subs
    Hoster: Uploaded, Share-Online

    MediaInfo
    720p-8Bit
    Code:
    
    Format                                   : MPEG-4
    Format profile                           : Base Media
    Codec ID                                 : isom
    File size                                : 366 MiB
    Duration                                 : 23mn 37s
    Overall bit rate mode                    : Variable
    Overall bit rate                         : 2 168 Kbps
    Encoded date                             : UTC 2015-10-09 14:54:13
    Tagged date                              : UTC 2015-10-09 14:54:13
    Writing application                      : Yamb 2.1.0.0 [http://yamb.unite-video.com]
    
    Video
    ID                                       : 1
    Format                                   : AVC
    Format/Info                              : Advanced Video Codec
    Format profile                           : [email protected]
    Format settings, CABAC                   : Yes
    Format settings, ReFrames                : 9 frames
    Codec ID                                 : avc1
    Codec ID/Info                            : Advanced Video Coding
    Duration                                 : 23mn 36s
    Bit rate                                 : 2 036 Kbps
    Maximum bit rate                         : 14.9 Mbps
    Width                                    : 1 280 pixels
    Height                                   : 720 pixels
    Display aspect ratio                     : 16:9
    Frame rate mode                          : Constant
    Frame rate                               : 23.976 fps
    Color space                              : YUV
    Chroma subsampling                       : 4:2:0
    Bit depth                                : 8 bits
    Scan type                                : Progressive
    Bits/(Pixel*Frame)                       : 0.092
    Stream size                              : 344 MiB (94%)
    Writing library                          : x264 core 122 r2184 5c85e0a
    Encoding settings                        : cabac=1 / ref=9 / deblock=1:-2:-2 / analyse=0x1:0x131 / me=umh / subme=11 / psy=1 / psy_rd=0.85:0.25 / mixed_ref=1 / me_range=40 / chroma_me=1 / trellis=2 / 8x8dct=0 / cqm=0 / deadzone=21,11 / fast_pskip=0 / chroma_qp_offset=-4 / threads=6 / sliced_threads=0 / nr=0 / decimate=0 / interlaced=0 / bluray_compat=0 / constrained_intra=0 / bframes=16 / b_pyramid=2 / b_adapt=2 / b_bias=0 / direct=1 / weightb=1 / open_gop=0 / weightp=2 / keyint=250 / keyint_min=23 / scenecut=40 / intra_refresh=0 / rc_lookahead=40 / rc=crf / mbtree=1 / crf=16.0 / qcomp=0.70 / qpmin=0 / qpmax=69 / qpstep=4 / ip_ratio=1.40 / aq=2:1.25
    Encoded date                             : UTC 2015-10-10 14:01:01
    Tagged date                              : UTC 2015-10-09 14:54:14
    
    Audio
    ID                                       : 2
    Format                                   : AAC
    Format/Info                              : Advanced Audio Codec
    Format profile                           : LC
    Codec ID                                 : 40
    Duration                                 : 23mn 37s
    Bit rate mode                            : Variable
    Bit rate                                 : 128 Kbps
    Maximum bit rate                         : 137 Kbps
    Channel count                            : 2 channels
    Channel positions                        : Front: L R
    Sampling rate                            : 44.1 KHz
    Compression mode                         : Lossy
    Stream size                              : 21.6 MiB (6%)
    Encoded date                             : UTC 2015-10-09 14:54:13
    Tagged date                              : UTC 2015-10-09 14:54:14
    
    720p-10Bit
    Code:
    
    Format                                   : Matroska
    Format version                           : Version 4 / Version 2
    File size                                : 360 MiB
    Duration                                 : 23mn 37s
    Overall bit rate                         : 2 131 Kbps
    Movie name                               : [Chinurarete Subs]Sakurako-san no Ashimoto ni wa Shitai ga Umatteiru - Erster Knochen - Die Knochen liebende Prinzessin
    Encoded date                             : UTC 2015-10-10 15:01:26
    Writing application                      : mkvmerge v7.0.0 ('Where We Going') 64bit built on Jun  9 2014 15:16:27
    Writing library                          : libebml v1.3.0 + libmatroska v1.4.1
    _STATISTICS_WRITING_APP                  : mkvmerge v7.0.0 ('Where We Going') 64bit built on Jun  9 2014 15:16:27
    _STATISTICS_WRITING_DATE_UTC             : 2015-10-10 15:01:26
    _STATISTICS_TAGS                         : BPS DURATION NUMBER_OF_FRAMES NUMBER_OF_BYTES
    DURATION                                 : 00:23:30.340000000
    NUMBER_OF_FRAMES                         : 7795
    NUMBER_OF_BYTES                          : 1074960
    Attachment                               : Yes / Yes / Yes / Yes / Yes / Yes / Yes / Yes / Yes / Yes / Yes / Yes / Yes / Yes / Yes / Yes / Yes / Yes
    
    Video
    ID                                       : 1
    Format                                   : AVC
    Format/Info                              : Advanced Video Codec
    Format profile                           : High [email protected]
    Format settings, CABAC                   : Yes
    Format settings, ReFrames                : 16 frames
    Codec ID                                 : V_MPEG4/ISO/AVC
    Duration                                 : 23mn 37s
    Width                                    : 1 280 pixels
    Height                                   : 720 pixels
    Display aspect ratio                     : 16:9
    Frame rate mode                          : Constant
    Frame rate                               : 23.976 fps
    Color space                              : YUV
    Chroma subsampling                       : 4:2:0
    Bit depth                                : 10 bits
    Scan type                                : Progressive
    Title                                    : Video
    Writing library                          : x264 core 133 r2334 a3ac64b
    Encoding settings                        : cabac=1 / ref=16 / deblock=1:1:0 / analyse=0x3:0x133 / me=umh / subme=11 / psy=1 / psy_rd=1.15:0.25 / mixed_ref=1 / me_range=30 / chroma_me=1 / trellis=2 / 8x8dct=1 / cqm=0 / deadzone=21,11 / fast_pskip=0 / chroma_qp_offset=-4 / threads=12 / lookahead_threads=3 / sliced_threads=0 / nr=0 / decimate=0 / interlaced=0 / bluray_compat=0 / constrained_intra=0 / bframes=16 / b_pyramid=2 / b_adapt=2 / b_bias=0 / direct=3 / weightb=1 / open_gop=0 / weightp=2 / keyint=249 / keyint_min=23 / scenecut=40 / intra_refresh=0 / rc_lookahead=249 / rc=crf / mbtree=1 / crf=16.0 / qcomp=0.90 / qpmin=0 / qpmax=81 / qpstep=4 / ip_ratio=1.40 / aq=2:0.80
    Language                                 : German
    Default                                  : Yes
    Forced                                   : No
    Color primaries                          : BT.709
    Transfer characteristics                 : BT.709
    Matrix coefficients                      : BT.709
    
    Audio
    ID                                       : 2
    Format                                   : AAC
    Format/Info                              : Advanced Audio Codec
    Format profile                           : LC
    Codec ID                                 : A_AAC
    Duration                                 : 23mn 37s
    Channel count                            : 2 channels
    Channel positions                        : Front: L R
    Sampling rate                            : 44.1 KHz
    Compression mode                         : Lossy
    Title                                    : Audio
    Language                                 : Japanese
    Default                                  : Yes
    Forced                                   : No
    _STATISTICS_WRITING_APP                  : mkvmerge v7.0.0 ('Where We Going') 64bit built on Jun  9 2014 15:16:27
    _STATISTICS_WRITING_DATE_UTC             : 2015-10-10 15:01:26
    _STATISTICS_TAGS                         : BPS DURATION NUMBER_OF_FRAMES NUMBER_OF_BYTES
    DURATION                                 : 00:23:37.068000000
    NUMBER_OF_FRAMES                         : 61028
    NUMBER_OF_BYTES                          : 22673078
    
    Text #1
    ID                                       : 3
    Format                                   : ASS
    Codec ID                                 : S_TEXT/ASS
    Codec ID/Info                            : Advanced Sub Station Alpha
    Compression mode                         : Lossless
    Title                                    : Farbsub
    Language                                 : German
    Default                                  : Yes
    Forced                                   : Yes
    
    Text #2
    ID                                       : 4
    Format                                   : ASS
    Codec ID                                 : S_TEXT/ASS
    Codec ID/Info                            : Advanced Sub Station Alpha
    Compression mode                         : Lossless
    Title                                    : Kein Farbsub
    Language                                 : German
    Default                                  : No
    Forced                                   : No
    
    Menu
    00:00:00.000                             : :Hauptteil
    00:22:06.620                             : :Opening / Ending




    Geschützter Bereich - Bedanke dich beim Poster, um den Bereich sehen zu können
    Hier erfährst Du wie Du Dich bedanken kannst oder werde jetzt Premium Mitglied ab einer Spende von 5€ und erhalte sofortigen Zugriff auf den Downloadbereich!


    [Links sind nur für registrierte und aktivierte Nutzer sichtbar. Klicke hier um dich zu registrieren.]
    Geändert von 00Ryuji00 (6. February 2016 um 00:00 Uhr)
    !!!Alle Anliegen bezüglich Uploads werden nur mit direktem Threadlink zum Angebot bearbeitet!!!

    Re-Uploadanfragen nur per PN - Ihr könnt mir auch Listen schicken

    Re-Uploads erfolgen meist innerhalb 24h, kann aber auch bis zu 7 Tage dauern

    [Links sind nur für registrierte und aktivierte Nutzer sichtbar. Klicke hier um dich zu registrieren.] | [Links sind nur für registrierte und aktivierte Nutzer sichtbar. Klicke hier um dich zu registrieren.] | >[Links sind nur für registrierte und aktivierte Nutzer sichtbar. Klicke hier um dich zu registrieren.]<
    [Links sind nur für registrierte und aktivierte Nutzer sichtbar. Klicke hier um dich zu registrieren.]

  2. 68 Benutzer sagen Danke:

    Anzeigen

    AngelNine (12. October 2015),Axel87 (11. October 2015),Bizzy76 (6. December 2015),BlackGoldSaw (10. October 2015),Breenori (14. October 2015),Bunyos (11. October 2015),Buze (17. December 2015),Callisto (10. January 2016),chopper23 (22. November 2015),coldbears48 (31. October 2015),DarkLightSlayer (5. March 2016),dmix (16. December 2015),Evilsensei (11. October 2015),famoon (18. June 2016),Fanat1c (13. October 2015),FantasticZ (26. December 2015),Geisterhaendler (1. December 2015),Hasru-san (31. October 2015),hnnnn (1. February 2016),iCapuz (30. December 2015),johnny10 (9. November 2015),Kalchi (21. July 2016),Kaori (22. November 2015),Karmoth (30. January 2016),Kartox (23. November 2015),kei (18. November 2015),KingDing15 (28. November 2015),Kippei (11. October 2015),Knochenjonny (15. January 2016),Lichtsang (11. December 2015),Loki92 (21. October 2015),Lubastos (23. January 2016),manuel4193 (21. October 2015),Miauundso (13. October 2015),michael187 (11. October 2015),midnighter (11. October 2015),Mikyo (19. December 2015),Mosa (23. December 2015),Nijazi2000 (6. January 2016),Noire16 (14. October 2015),Nyan (5. November 2015),old nick (10. October 2015),OokamiHoro (1. January 2016),OtakuTim (11. October 2015),RaienryuuRgr (24. January 2016),Raziel (23. October 2015),realmadridcf (5. January 2016),Reiko (31. October 2015),rekiznuh1 (11. October 2015),Rena (10. March 2016),Rhonos (14. October 2015),Riven (30. December 2015),sakaeo42 (16. April 2016),Seki (14. January 2016),Shugyosha (12. October 2015),SONNYxq (8. November 2015),SoulZ (26. November 2015),ssj3shad (2. January 2016),TakashiKudo (17. October 2015),Tidus18 (23. January 2016),tokyodrift (26. October 2015),Traxolator (22. November 2015),Valetinese (21. October 2015),weezy887 (24. October 2015),xDarkness (7. February 2016),Zap (14. October 2015),Zeichensalat (24. November 2015),zeref tsukuyomi (30. November 2015)

  3. #2
    Uploader Avatar von Filbo11
    Registriert seit
    Jan 2015
    Beiträge
    927
    Punkte
    17.213
    Errungenschaften:
    TomodachisErste Gruppe1 Jahr registriertCreated Album picturesTagger First Class

    AW: Sakurako-san no Ashimoto ni wa Shitai ga Umatteiru [Jap-Dub][Ger-Sub][720p][8Bit/10Bit][HDTV] - Chinurarete-Subs

    Sakurako-san no Ashimoto ni wa Shitai ga Umatteiru
    櫻子さんの足下には死体が埋まっている
    Beautiful Bones: Sakurako’s Investigation
    A Corpse is Buried Under Sakurako's Feet




    Beschreibung

    Die Mittzwanzigerin Sakurako Kujyou ist eine außerordentlich schöne Frau. Sie ist in einer reichen Familie aufgewachsen, die "schöne Knochen" besonders liebt. Ihr Freund Shoutarou Tatewaki gibt gerne mit Sakurako an, doch eigentlich ist er nur ein normaler Oberschüler mit einem sehr ernsten Benehmen. Das Pärchen lebt in Asahikawa, einer Stadt in Hokkaido, und sie werden in verschiedene Vorfälle hineingezogen, die allesamt etwas mit Knochen zu tun haben.


    Format: mp4 [8Bit] / mkv [10Bit]
    Dauer: ca. 24 min
    Größe: ca. 366 MB [8Bit] / 359 MB [10Bit]
    Sprache: Japanisch
    Untertitel: Deutsch
    Group: [Chinurarete Subs]
    Hoster: Uploaded.net & Share-Online.biz
    kein PW


    Screenshots & MediaInfo

    8Bit
    [Links sind nur für registrierte und aktivierte Nutzer sichtbar. Klicke hier um dich zu registrieren.]

    Code:
    General
    Complete name               : [Chinurarete_Subs]Sakurako-san_no_Ashimoto_ni_wa_Shitai_ga_Umatteiru_Folge_01_8BIT.mp4
    Format                      : MPEG-4
    Format profile              : Base Media
    Codec ID                    : isom
    File size                   : 366 MiB
    Duration                    : 23mn 37s
    Overall bit rate mode       : Variable
    Overall bit rate            : 2 168 Kbps
    Encoded date                : UTC 2015-10-09 14:54:13
    Tagged date                 : UTC 2015-10-09 14:54:13
    Writing application         : Yamb 2.1.0.0 [http://yamb.unite-video.com]
    
    Video
    ID                          : 1
    Format                      : AVC
    Format/Info                 : Advanced Video Codec
    Format profile              : [email protected]
    Format settings, CABAC      : Yes
    Format settings, ReFrames   : 9 frames
    Codec ID                    : avc1
    Codec ID/Info               : Advanced Video Coding
    Duration                    : 23mn 36s
    Bit rate                    : 2 036 Kbps
    Maximum bit rate            : 14.9 Mbps
    Width                       : 1 280 pixels
    Height                      : 720 pixels
    Display aspect ratio        : 16:9
    Frame rate mode             : Constant
    Frame rate                  : 23.976 fps
    Color space                 : YUV
    Chroma subsampling          : 4:2:0
    Bit depth                   : 8 bits
    Scan type                   : Progressive
    Bits/(Pixel*Frame)          : 0.092
    Stream size                 : 344 MiB (94%)
    Writing library             : x264 core 122 r2184 5c85e0a
    Encoding settings           : cabac=1 / ref=9 / deblock=1:-2:-2 / analyse=0x1:0x131 / me=umh / subme=11 / psy=1 / psy_rd=0.85:0.25 / mixed_ref=1 / me_range=40 / chroma_me=1 / trellis=2 / 8x8dct=0 / cqm=0 / deadzone=21,11 / fast_pskip=0 / chroma_qp_offset=-4 / threads=6 / sliced_threads=0 / nr=0 / decimate=0 / interlaced=0 / bluray_compat=0 / constrained_intra=0 / bframes=16 / b_pyramid=2 / b_adapt=2 / b_bias=0 / direct=1 / weightb=1 / open_gop=0 / weightp=2 / keyint=250 / keyint_min=23 / scenecut=40 / intra_refresh=0 / rc_lookahead=40 / rc=crf / mbtree=1 / crf=16.0 / qcomp=0.70 / qpmin=0 / qpmax=69 / qpstep=4 / ip_ratio=1.40 / aq=2:1.25
    Encoded date                : UTC 2015-10-10 14:01:01
    Tagged date                 : UTC 2015-10-09 14:54:14
    
    Audio
    ID                          : 2
    Format                      : AAC
    Format/Info                 : Advanced Audio Codec
    Format profile              : LC
    Codec ID                    : 40
    Duration                    : 23mn 37s
    Bit rate mode               : Variable
    Bit rate                    : 128 Kbps
    Maximum bit rate            : 137 Kbps
    Channel(s)                  : 2 channels
    Channel positions           : Front: L R
    Sampling rate               : 44.1 KHz
    Compression mode            : Lossy
    Stream size                 : 21.6 MiB (6%)
    Encoded date                : UTC 2015-10-09 14:54:13
    Tagged date                 : UTC 2015-10-09 14:54:14


    10Bit
    [Links sind nur für registrierte und aktivierte Nutzer sichtbar. Klicke hier um dich zu registrieren.]

    Code:
    General
    
    Complete name               : [Chinurarete_Subs]Sakurako-san_no_Ashimoto_ni_wa_Shitai_ga_Umatteiru_Folge_01_10BIT.mkv
    Format                      : Matroska
    Format version              : Version 4 / Version 2
    File size                   : 360 MiB
    Duration                    : 23mn 37s
    Overall bit rate            : 2 131 Kbps
    Movie name                  : [Chinurarete Subs]Sakurako-san no Ashimoto ni wa Shitai ga Umatteiru - Erster Knochen - Die Knochen liebende Prinzessin
    Encoded date                : UTC 2015-10-10 15:01:26
    Writing application         : mkvmerge v7.0.0 ('Where We Going') 64bit built on Jun  9 2014 15:16:27
    Writing library             : libebml v1.3.0 + libmatroska v1.4.1
    Attachements                : LinBiolinum_aRL.ttf / LinBiolinum_aU.ttf / LinBiolinum_aUB.ttf / LinBiolinum_aUI.ttf / LinBiolinum_aW.ttf / LinBiolinum_aWB.ttf / LinBiolinum_aWI.ttf / LinBiolinum_R.ttf / LinBiolinum_RB.ttf / LinBiolinum_RI.ttf / times.ttf / timesbd.ttf / timesbi.ttf / timesi.ttf / BEACH TYPE PL.TTF / Beacn.ttf / LinBiolinum_aBL.ttf / OpenSans-Semibold.ttf
    _STATISTICS_WRITING_APP     : mkvmerge v7.0.0 ('Where We Going') 64bit built on Jun  9 2014 15:16:27
    _STATISTICS_WRITING_DATE_UT : 2015-10-10 15:01:26
    _STATISTICS_TAGS            : BPS DURATION NUMBER_OF_FRAMES NUMBER_OF_BYTES
    DURATION                    : 00:23:30.340000000
    NUMBER_OF_FRAMES            : 7795
    NUMBER_OF_BYTES             : 1074960
    
    Video
    ID                          : 1
    Format                      : AVC
    Format/Info                 : Advanced Video Codec
    Format profile              : High [email protected]
    Format settings, CABAC      : Yes
    Format settings, ReFrames   : 16 frames
    Codec ID                    : V_MPEG4/ISO/AVC
    Duration                    : 23mn 37s
    Width                       : 1 280 pixels
    Height                      : 720 pixels
    Display aspect ratio        : 16:9
    Frame rate mode             : Constant
    Frame rate                  : 23.976 fps
    Color space                 : YUV
    Chroma subsampling          : 4:2:0
    Bit depth                   : 10 bits
    Scan type                   : Progressive
    Title                       : Video
    Writing library             : x264 core 133 r2334 a3ac64b
    Encoding settings           : cabac=1 / ref=16 / deblock=1:1:0 / analyse=0x3:0x133 / me=umh / subme=11 / psy=1 / psy_rd=1.15:0.25 / mixed_ref=1 / me_range=30 / chroma_me=1 / trellis=2 / 8x8dct=1 / cqm=0 / deadzone=21,11 / fast_pskip=0 / chroma_qp_offset=-4 / threads=12 / lookahead_threads=3 / sliced_threads=0 / nr=0 / decimate=0 / interlaced=0 / bluray_compat=0 / constrained_intra=0 / bframes=16 / b_pyramid=2 / b_adapt=2 / b_bias=0 / direct=3 / weightb=1 / open_gop=0 / weightp=2 / keyint=249 / keyint_min=23 / scenecut=40 / intra_refresh=0 / rc_lookahead=249 / rc=crf / mbtree=1 / crf=16.0 / qcomp=0.90 / qpmin=0 / qpmax=81 / qpstep=4 / ip_ratio=1.40 / aq=2:0.80
    Language                    : German
    Default                     : Yes
    Forced                      : No
    Color range                 : Limited
    Color primaries             : BT.709
    Transfer characteristics    : BT.709
    Matrix coefficients         : BT.709
    
    Audio
    ID                          : 2
    Format                      : AAC
    Format/Info                 : Advanced Audio Codec
    Format profile              : LC
    Codec ID                    : A_AAC
    Duration                    : 23mn 37s
    Channel(s)                  : 2 channels
    Channel positions           : Front: L R
    Sampling rate               : 44.1 KHz
    Compression mode            : Lossy
    Title                       : Audio
    Language                    : Japanese
    Default                     : Yes
    Forced                      : No
    _STATISTICS_WRITING_APP     : mkvmerge v7.0.0 ('Where We Going') 64bit built on Jun  9 2014 15:16:27
    _STATISTICS_WRITING_DATE_UT : 2015-10-10 15:01:26
    _STATISTICS_TAGS            : BPS DURATION NUMBER_OF_FRAMES NUMBER_OF_BYTES
    DURATION                    : 00:23:37.068000000
    NUMBER_OF_FRAMES            : 61028
    NUMBER_OF_BYTES             : 22673078
    
    Text #1
    ID                          : 3
    Format                      : ASS
    Codec ID                    : S_TEXT/ASS
    Codec ID/Info               : Advanced Sub Station Alpha
    Compression mode            : Lossless
    Title                       : Farbsub
    Language                    : German
    Default                     : Yes
    Forced                      : Yes
    
    Text #2
    ID                          : 4
    Format                      : ASS
    Codec ID                    : S_TEXT/ASS
    Codec ID/Info               : Advanced Sub Station Alpha
    Compression mode            : Lossless
    Title                       : Kein Farbsub
    Language                    : German
    Default                     : No
    Forced                      : No
    
    Menu
    00:00:00.000                : :Hauptteil
    00:22:06.620                : :Opening / Ending


    Alle Mirrors untereinander kompatibel
    Folgen einzeln ladbar
    Folge 5/12 online


    Download

    Geschützter Bereich - Bedanke dich beim Poster, um den Bereich sehen zu können
    Hier erfährst Du wie Du Dich bedanken kannst oder werde jetzt Premium Mitglied ab einer Spende von 5€ und erhalte sofortigen Zugriff auf den Downloadbereich!


    Geändert von Filbo11 (13. November 2015 um 23:41 Uhr) Grund: folge 5 hinzugefügt

    [Links sind nur für registrierte und aktivierte Nutzer sichtbar. Klicke hier um dich zu registrieren.]

    Ich wäre allen sehr dankbar, die mir gravierende Fehler in meinen Releases per PN melden

  4. 27 Benutzer sagen Danke:

    Bizzy76 (6. December 2015),Bunyos (21. October 2015),Callisto (21. October 2015),chopper23 (22. November 2015),dmix (16. December 2015),famoon (18. June 2016),Hinamori309 (28. December 2015),Kaori (22. November 2015),KingDing15 (28. November 2015),manuel4193 (31. October 2015),michael187 (6. November 2015),midnighter (11. October 2015),Murtagks (20. November 2015),OtakuTim (31. October 2015),Reiko (13. December 2015),Rena (10. March 2016),Rikune (22. January 2016),Riven (6. January 2016),S1M0N93 (25. January 2016),sakaeo42 (16. April 2016),SONNYxq (8. November 2015),SoulZ (26. November 2015),TakashiKudo (15. November 2015),Tekk (1. November 2015),tokyodrift (24. December 2015),Valetinese (21. October 2015),Zap (31. October 2015)

  5. #3
    Uploader Avatar von Filbo11
    Registriert seit
    Jan 2015
    Beiträge
    927
    Punkte
    17.213
    Errungenschaften:
    TomodachisErste Gruppe1 Jahr registriertCreated Album picturesTagger First Class

    AW: Sakurako-san no Ashimoto ni wa Shitai ga Umatteiru [Jap-Dub][Ger-Sub][720p][8Bit/10Bit][HDTV] - Chinurarete-Subs

    folge 2 hinzugefügt

    [Links sind nur für registrierte und aktivierte Nutzer sichtbar. Klicke hier um dich zu registrieren.]

    Ich wäre allen sehr dankbar, die mir gravierende Fehler in meinen Releases per PN melden

  6. #4
    Uploader Avatar von Filbo11
    Registriert seit
    Jan 2015
    Beiträge
    927
    Punkte
    17.213
    Errungenschaften:
    TomodachisErste Gruppe1 Jahr registriertCreated Album picturesTagger First Class

    AW: Sakurako-san no Ashimoto ni wa Shitai ga Umatteiru [Jap-Dub][Ger-Sub][720p][8Bit/10Bit][HDTV] - Chinurarete-Subs

    folge 3 hinzugefügt

    [Links sind nur für registrierte und aktivierte Nutzer sichtbar. Klicke hier um dich zu registrieren.]

    Ich wäre allen sehr dankbar, die mir gravierende Fehler in meinen Releases per PN melden

  7. #5
    Uploader Avatar von Filbo11
    Registriert seit
    Jan 2015
    Beiträge
    927
    Punkte
    17.213
    Errungenschaften:
    TomodachisErste Gruppe1 Jahr registriertCreated Album picturesTagger First Class

    AW: Sakurako-san no Ashimoto ni wa Shitai ga Umatteiru [Jap-Dub][Ger-Sub][720p][8Bit/10Bit][HDTV] - Chinurarete-Subs

    folge 4 hinzugefügt

    [Links sind nur für registrierte und aktivierte Nutzer sichtbar. Klicke hier um dich zu registrieren.]

    Ich wäre allen sehr dankbar, die mir gravierende Fehler in meinen Releases per PN melden

  8. #6
    Uploader Avatar von Filbo11
    Registriert seit
    Jan 2015
    Beiträge
    927
    Punkte
    17.213
    Errungenschaften:
    TomodachisErste Gruppe1 Jahr registriertCreated Album picturesTagger First Class

    AW: Sakurako-san no Ashimoto ni wa Shitai ga Umatteiru [Jap-Dub][Ger-Sub][720p][8Bit/10Bit][HDTV] - Chinurarete-Subs

    folge 5 hinzugefügt

    [Links sind nur für registrierte und aktivierte Nutzer sichtbar. Klicke hier um dich zu registrieren.]

    Ich wäre allen sehr dankbar, die mir gravierende Fehler in meinen Releases per PN melden

Lesezeichen

Berechtigungen

  • Neue Themen erstellen: Nein
  • Themen beantworten: Nein
  • Anhänge hochladen: Nein
  • Beiträge bearbeiten: Nein
  •  

1 2 3 4 5 6 7 8 9 10 11 12 13 14 15 16 17 18 19 20 21 22 23 24 25 26 27 28 29 30 31 32 33 34 35 36 37 38 39 40 41 42 43 44 45 46 47 48 49 50 51 52 53 54 55 56 57 58 59 60 61 62 63 64 65 66 67 68 69 70 71 72 73 74 75 76 77 78 79 80 81 82 83 84 85 86 87 88 89 90 91 92 93 94 95 96 97 98 99 100 101 102 103 104 105 106 107 108 109 110 111 112 113 114 115 116 117 118 119 120 121 122 123 124 125 126 127 128 129 130 131 132 133 134 135 136 137 138 139 140 141 142 143 144 145 146 147 148 149 150 151 152 153 154 155 156 157 158