Ergebnis 1 bis 1 von 1

Thema: Senki Zesshou Symphogear G (S2) [Jap-Dub][Ger-Sub][720p][HDTV]

Dieser Thread wurde noch nicht bewertet. Bewerte ihn doch, wenn er dir gefällt!
  1. #1
    United we Stand Avatar von 00Ryuji00
    Registriert seit
    Oct 2012
    Beiträge
    3.902
    Punkte
    100.092
    Errungenschaften:
    TomodachisGang LeaderHikikomoriTagger Amateur50000 Erfahrungspunkte

    Senki Zesshou Symphogear G (S2) [Jap-Dub][Ger-Sub][720p][HDTV]


    Senki Zesshou Symphogear G: In the Distance, That Day, When the Star Became Music...
    戦姫絶唱シンフォギアG In the distance, that day, when the star became music...
    Senki Zesshou Symphogear G Second Season
    Senki Zesshou Symphogear G 2






    Kurzbeschreibung:
    Zitat Zitat von AniSearch.com
    Drei Monate nach den Ereignissen der ersten Staffel:Wegen der aktuellen verstrickten Gesamtlage wird das Symphogear-System der japanischen Regierung von verschiedenen Organisationen in den Blickwinkel genommen. Einige Dinge über dieses System wurden bereits offengelegt, da es eine effektive Gegenmaßnahme gegen die Noise ist, aber natürlich werden keine Informationen über die Nutzer an sich preisgegeben.Während deren alltägliches Leben aufrecht erhalten wird, nehmen sie auch an der Forschung teil, welche gemeinsam von Japan und den USA geleitet wird. Höchste Forschungspriorität liegt bei dem Relikt "Solomon's Cane", welches zu einer US-Militärbasis in Iwakuni gebracht wurde. Plötzlich jedoch greifen Noise den Konvoi an, der das Artefakt transportiert - ein nie dagewesenes Verhalten, da die Noise sonst nur aufs Töten fixiert waren und keine strategischen Entscheidungen treffen konnten. Diese Exemplare werden aber offensichtlich von jemandem kontrolliert und es dauert nicht lange, bis diejenigen sich zu erkennen geben. Eine Terrororganisation, die sich "Finé" nennt, fordert mit dem Druckmittel der Kontrolle über die Noise die gesamte Welt zur Übereignung aller ihrer Territorien auf. Wer diese Drohung ausstößt, ist ausgerechnet jene junge amerikanische Sängerin namens Maria, die kurz zuvor gerade noch freunschaftlich Tsubasas Hand geschüttelt hat. Und es kommt noch schlimmer: Mit den Augen der Welt auf sich gerichtet offenbart sich Maria als Symphogear-Trägerin und fordert Tsubasa zum Duell...


    Spieldauer: 24min
    Genre: Action
    Nebengenres: Action, Männlich, Sci-Fi
    Jahr: 2013
    Sprache: Japanisch
    Untertitel: Deutsch
    Größe pro Folge: 500-800 MB
    Episodenanzahl: 13/13
    Format: mp4
    Auflösung: 720p (16:9)
    Videocodec: x264 (AVC)
    Audiocodec: AAC
    Releasegruppe: Chinurarete-Subs
    Hoster: Share-Online, Uploaded


    MediaInfo
    Code:
    
    Format                                   : MPEG-4
    Format profile                           : Base Media
    Codec ID                                 : isom
    File size                                : 727 MiB
    Duration                                 : 23mn 41s
    Overall bit rate mode                    : Variable
    Overall bit rate                         : 4 293 Kbps
    Writing application                      : Lavf54.63.104
    
    Video
    ID                                       : 1
    Format                                   : AVC
    Format/Info                              : Advanced Video Codec
    Format profile                           : [email protected]
    Format settings, CABAC                   : Yes
    Format settings, ReFrames                : 9 frames
    Codec ID                                 : avc1
    Codec ID/Info                            : Advanced Video Coding
    Duration                                 : 23mn 41s
    Bit rate                                 : 3 970 Kbps
    Width                                    : 1 280 pixels
    Height                                   : 720 pixels
    Display aspect ratio                     : 16:9
    Frame rate mode                          : Constant
    Frame rate                               : 23.976 fps
    Color space                              : YUV
    Chroma subsampling                       : 4:2:0
    Bit depth                                : 8 bits
    Scan type                                : Progressive
    Bits/(Pixel*Frame)                       : 0.180
    Stream size                              : 673 MiB (92%)
    Writing library                          : x264 core 122 r2184 5c85e0a
    Encoding settings                        : cabac=1 / ref=9 / deblock=1:-2:-2 / analyse=0x1:0x131 / me=umh / subme=11 / psy=1 / psy_rd=0.85:0.25 / mixed_ref=1 / me_range=40 / chroma_me=1 / trellis=2 / 8x8dct=0 / cqm=0 / deadzone=21,11 / fast_pskip=0 / chroma_qp_offset=-4 / threads=6 / sliced_threads=0 / nr=0 / decimate=0 / interlaced=0 / bluray_compat=0 / constrained_intra=0 / bframes=16 / b_pyramid=2 / b_adapt=2 / b_bias=0 / direct=1 / weightb=1 / open_gop=0 / weightp=2 / keyint=250 / keyint_min=23 / scenecut=40 / intra_refresh=0 / rc_lookahead=40 / rc=crf / mbtree=1 / crf=16.0 / qcomp=0.70 / qpmin=0 / qpmax=69 / qpstep=4 / ip_ratio=1.40 / aq=2:1.25
    
    Audio
    ID                                       : 2
    Format                                   : AAC
    Format/Info                              : Advanced Audio Codec
    Format profile                           : LC
    Codec ID                                 : 40
    Duration                                 : 23mn 41s
    Bit rate mode                            : Variable
    Bit rate                                 : 320 Kbps
    Channel count                            : 2 channels
    Channel positions                        : Front: L R
    Sampling rate                            : 48.0 KHz
    Compression mode                         : Lossy
    Stream size                              : 53.8 MiB (7%)
    
    




    Geschützter Bereich - Bedanke dich beim Poster, um den Bereich sehen zu können
    Hier erfährst Du wie Du Dich bedanken kannst oder werde jetzt Premium Mitglied ab einer Spende von 5€ und erhalte sofortigen Zugriff auf den Downloadbereich!
    !!!Alle Anliegen bezüglich Uploads werden nur mit direktem Threadlink zum Angebot bearbeitet!!!

    Re-Uploadanfragen nur per PN - Ihr könnt mir auch Listen schicken

    Re-Uploads folgen nach Anfrage meist am Wochenende

    [Links sind nur für registrierte und aktivierte Nutzer sichtbar. Klicke hier um dich zu registrieren.] | [Links sind nur für registrierte und aktivierte Nutzer sichtbar. Klicke hier um dich zu registrieren.] | >[Links sind nur für registrierte und aktivierte Nutzer sichtbar. Klicke hier um dich zu registrieren.]<
    [Links sind nur für registrierte und aktivierte Nutzer sichtbar. Klicke hier um dich zu registrieren.]

  2. 16 Benutzer sagen Danke:

    Akio (5. May 2016),classius (1. November 2015),DaaFloH (23. September 2015),dr_fist (31. October 2015),firenox89 (21. September 2015),inst4gib (15. September 2015),johnny10 (10. September 2015),Kalchi (18. July 2016),Kox598 (1. January 2016),Lang (22. November 2015),Learza (26. September 2015),lutiju (19. August 2015),meyerja (10. August 2015),midnighter (13. August 2015),Silent467 (12. September 2015),SONNYxq (9. August 2015)

Lesezeichen

Berechtigungen

  • Neue Themen erstellen: Nein
  • Themen beantworten: Nein
  • Anhänge hochladen: Nein
  • Beiträge bearbeiten: Nein
  •  

1 2 3 4 5 6 7 8 9 10 11 12 13 14 15 16 17 18 19 20 21 22 23 24 25 26 27 28 29 30 31 32 33 34 35 36 37 38 39 40 41 42 43 44 45 46 47 48 49 50 51 52 53 54 55 56 57 58 59 60 61 62 63 64 65 66 67 68 69 70 71 72 73 74 75 76 77 78 79 80 81 82 83 84 85 86 87 88 89 90 91 92 93 94 95 96 97 98 99 100 101 102 103 104 105 106 107 108 109 110 111 112 113 114 115 116 117 118 119 120 121 122 123 124 125 126 127 128 129 130 131 132 133 134 135 136 137 138 139 140 141 142 143 144 145 146 147 148 149 150 151 152 153 154 155 156 157 158