Ergebnis 1 bis 2 von 2

Thema: Senki Zesshou Symphogear (S1) [Jap-Dub][Ger-Sub][720p][BluRay]-MGS

Dieser Thread wurde noch nicht bewertet. Bewerte ihn doch, wenn er dir gefällt!
  1. #1
    United we Stand Avatar von 00Ryuji00
    Registriert seit
    Oct 2012
    Beiträge
    3.902
    Punkte
    100.019
    Errungenschaften:
    TomodachisGang LeaderHikikomoriTagger Amateur50000 Erfahrungspunkte

    Senki Zesshou Symphogear (S1) [Jap-Dub][Ger-Sub][720p][BluRay]-MGS


    Senki Zesshou Symphogear: Meteoroid-falling, Burning, and Disappear, Then...
    戦姫絶唱シンフォギア Meteoroid-falling, burning, and disappear, then...
    Senki Zesho Symphogear
    Senhime Zesshou Symphogear






    Kurzbeschreibung:
    Zitat Zitat von AniSearch.com
    Während eines Konzertes des beliebten Gesangsduos "Zwei Wing" greifen plötzlich Monster an, "Noise" genannt, und beginnen die Zuschauer zu töten. Das Mädchen Hibiki sieht schon ihren sicheren Tod gekommen, als sich Tsubasa und Kanade, die Sängerinnen von Zwei Wing, plötzlich verwandeln und beginnen die Monster zu bekämpfen. Für Hibiki sollte dieser Tag zum schicksalshaften Wendepunkt werden, der ihr Leben und ihre Zukunft auf immer beeinflusst.


    Spieldauer: 25min
    Genre: Action
    Nebengenres: Action, Männlich, Sci-Fi
    Jahr: 2011
    Sprache: Japanisch
    Untertitel: Deutsch
    Größe pro Folge: ~244 MiB
    Episodenanzahl: 13/13
    Format: MP4
    Auflösung: 720p (16:9)
    Videocodec: x264 (AVC)
    Audiocodec: MPEG Audio
    Releasegruppe: MGS
    Hoster: Share-Online, Uploaded


    MediaInfo
    Code:
    
    Format                                   : MPEG-4
    Format profile                           : Base Media
    Codec ID                                 : isom
    File size                                : 244 MiB
    Duration                                 : 23mn 42s
    Overall bit rate mode                    : Variable
    Overall bit rate                         : 1 441 Kbps
    Encoded date                             : UTC 2013-07-04 14:11:10
    Tagged date                              : UTC 2013-07-04 14:11:10
    
    Video
    ID                                       : 1
    Format                                   : AVC
    Format/Info                              : Advanced Video Codec
    Format profile                           : [email protected]
    Format settings, CABAC                   : Yes
    Format settings, ReFrames                : 8 frames
    Codec ID                                 : avc1
    Codec ID/Info                            : Advanced Video Coding
    Duration                                 : 23mn 42s
    Bit rate                                 : 1 319 Kbps
    Maximum bit rate                         : 8 304 Kbps
    Width                                    : 1 280 pixels
    Height                                   : 720 pixels
    Display aspect ratio                     : 16:9
    Frame rate mode                          : Constant
    Frame rate                               : 23.976 fps
    Color space                              : YUV
    Chroma subsampling                       : 4:2:0
    Bit depth                                : 8 bits
    Scan type                                : Progressive
    Bits/(Pixel*Frame)                       : 0.060
    Stream size                              : 223 MiB (91%)
    Writing library                          : x264 core 133 r2334 a3ac64b
    Encoding settings                        : cabac=1 / ref=8 / deblock=1:1:1 / analyse=0x3:0x113 / me=umh / subme=7 / psy=1 / psy_rd=1.00:0.00 / mixed_ref=1 / me_range=16 / chroma_me=1 / trellis=1 / 8x8dct=1 / cqm=0 / deadzone=21,11 / fast_pskip=1 / chroma_qp_offset=-2 / threads=6 / lookahead_threads=1 / sliced_threads=0 / nr=0 / decimate=1 / interlaced=0 / bluray_compat=0 / constrained_intra=0 / bframes=3 / b_pyramid=2 / b_adapt=2 / b_bias=0 / direct=1 / weightb=1 / open_gop=0 / weightp=2 / keyint=240 / keyint_min=23 / scenecut=40 / intra_refresh=0 / rc_lookahead=40 / rc=2pass / mbtree=1 / bitrate=1319 / ratetol=1.0 / qcomp=0.60 / qpmin=10 / qpmax=51 / qpstep=4 / cplxblur=20.0 / qblur=0.5 / ip_ratio=1.40 / aq=1:0.00
    Encoded date                             : UTC 2013-07-04 13:31:30
    Tagged date                              : UTC 2013-07-04 14:11:13
    
    Audio
    ID                                       : 2
    Format                                   : MPEG Audio
    Format version                           : Version 1
    Format profile                           : Layer 3
    Mode                                     : Joint stereo
    Mode extension                           : MS Stereo
    Codec ID                                 : 6B
    Duration                                 : 23mn 42s
    Bit rate mode                            : Variable
    Bit rate                                 : 120 Kbps
    Minimum bit rate                         : 32.0 Kbps
    Maximum bit rate                         : 169 Kbps
    Channel(s)                               : 2 channels
    Sampling rate                            : 48.0 KHz
    Compression mode                         : Lossy
    Stream size                              : 20.3 MiB (8%)
    Title                                    : [email protected]
    Writing library                          : LAME3.99r
    Encoding settings                        : -m j -V 5 -q 0 -lowpass 17 --vbr-new -b 32
    Encoded date                             : UTC 2013-07-04 14:11:12
    Tagged date                              : UTC 2013-07-04 14:11:13
    
    




    Geschützter Bereich - Bedanke dich beim Poster, um den Bereich sehen zu können
    Hier erfährst Du wie Du Dich bedanken kannst oder werde jetzt Premium Mitglied ab einer Spende von 5€ und erhalte sofortigen Zugriff auf den Downloadbereich!

    [Links sind nur für registrierte und aktivierte Nutzer sichtbar. Klicke hier um dich zu registrieren.]
    !!!Alle Anliegen bezüglich Uploads werden nur mit direktem Threadlink zum Angebot bearbeitet!!!

    Re-Uploadanfragen nur per PN - Ihr könnt mir auch Listen schicken

    Re-Uploads erfolgen meist innerhalb 24h, kann aber auch bis zu 7 Tage dauern

    [Links sind nur für registrierte und aktivierte Nutzer sichtbar. Klicke hier um dich zu registrieren.] | [Links sind nur für registrierte und aktivierte Nutzer sichtbar. Klicke hier um dich zu registrieren.] | >[Links sind nur für registrierte und aktivierte Nutzer sichtbar. Klicke hier um dich zu registrieren.]<
    [Links sind nur für registrierte und aktivierte Nutzer sichtbar. Klicke hier um dich zu registrieren.]

  2. 18 Benutzer sagen Danke:

    Akio (5. May 2016),Blackfire89 (10. June 2016),Corntendo (16. January 2016),eraz (5. January 2016),Flowbow (27. July 2016),GiftGasBaer (20. June 2016),Kalchi (28. July 2016),KevGraf94 (10. January 2016),midnighter (17. January 2016),noizmaker (2. January 2016),paulito.1 (13. June 2016),Shinon.Kagura (6. June 2016),SnowCat (5. June 2016),soleil75 (5. June 2016),tokyodrift (4. May 2016),undertaker0951 (5. September 2016),xhellsingx (31. January 2016),zoe#449 (5. June 2016)

  3. #2
    United we Stand Avatar von 00Ryuji00
    Registriert seit
    Oct 2012
    Beiträge
    3.902
    Punkte
    100.019
    Errungenschaften:
    TomodachisGang LeaderHikikomoriTagger Amateur50000 Erfahrungspunkte

    AW: Senki Zesshou Symphogear (S1) [Jap-Dub][Ger-Sub][720p][BluRay]-MGS

    Update: Dateien auf Wunsch wieder online.
    !!!Alle Anliegen bezüglich Uploads werden nur mit direktem Threadlink zum Angebot bearbeitet!!!

    Re-Uploadanfragen nur per PN - Ihr könnt mir auch Listen schicken

    Re-Uploads erfolgen meist innerhalb 24h, kann aber auch bis zu 7 Tage dauern

    [Links sind nur für registrierte und aktivierte Nutzer sichtbar. Klicke hier um dich zu registrieren.] | [Links sind nur für registrierte und aktivierte Nutzer sichtbar. Klicke hier um dich zu registrieren.] | >[Links sind nur für registrierte und aktivierte Nutzer sichtbar. Klicke hier um dich zu registrieren.]<
    [Links sind nur für registrierte und aktivierte Nutzer sichtbar. Klicke hier um dich zu registrieren.]

Lesezeichen

Berechtigungen

  • Neue Themen erstellen: Nein
  • Themen beantworten: Nein
  • Anhänge hochladen: Nein
  • Beiträge bearbeiten: Nein
  •  

1 2 3 4 5 6 7 8 9 10 11 12 13 14 15 16 17 18 19 20 21 22 23 24 25 26 27 28 29 30 31 32 33 34 35 36 37 38 39 40 41 42 43 44 45 46 47 48 49 50 51 52 53 54 55 56 57 58 59 60 61 62 63 64 65 66 67 68 69 70 71 72 73 74 75 76 77 78 79 80 81 82 83 84 85 86 87 88 89 90 91 92 93 94 95 96 97 98 99 100 101 102 103 104 105 106 107 108 109 110 111 112 113 114 115 116 117 118 119 120 121 122 123 124 125 126 127 128 129 130 131 132 133 134 135 136 137 138 139 140 141 142 143 144 145 146 147 148 149 150 151 152 153 154 155 156 157 158