Ergebnis 1 bis 1 von 1

Thema: Senran Kagura [Jap-Dub][Ger-Sub][720p][HDTV] - Pantsu

Dieser Thread wurde noch nicht bewertet. Bewerte ihn doch, wenn er dir gefällt!
  1. #1
    United we Stand Avatar von 00Ryuji00
    Registriert seit
    Oct 2012
    Beiträge
    3.902
    Punkte
    99.938
    Errungenschaften:
    TomodachisGang LeaderHikikomoriTagger Amateur50000 Erfahrungspunkte

    Senran Kagura [Jap-Dub][Ger-Sub][720p][HDTV] - Pantsu


    Senran Kagura
    閃乱カグラ






    Kurzbeschreibung:
    Zitat Zitat von AniSearch.com
    Senran Kagura ist eine Geschichte über Mut und Liebe und handelt von fünf Mädchen; Asuka, Ikaruga, Katsuragi, Yagyuu, Hibari von der Hanzo Akademie. Sie trainieren, um "gute Ninjas" zu werden, damit sie ihr Land gegen die "bösen Ninjas" verteidigen können, die von Organisationen und korrupten Politikern angeheuert werden.


    Spieldauer: 24min
    Genre: Actionkomödie
    Nebengenres: Action, Ecchi, Komödie
    Jahr: 2013
    Sprache: Japanisch
    Untertitel: Deutsch
    Größe pro Folge: ~348 MiB
    Episodenanzahl: 12/12
    Format: MP4
    Auflösung: 720p (16:9)
    Videocodec: x264 (AVC)
    Audiocodec: AAC
    Releasegruppe: Pantsu
    Hoster: Share-Online, Uploaded


    MediaInfo
    Code:
    
    Format                                   : MPEG-4
    Format profile                           : Base Media
    Codec ID                                 : isom
    File size                                : 348 MiB
    Duration                                 : 23mn 39s
    Overall bit rate                         : 2 057 Kbps
    Movie name                               : [Pantsu] Senran Kagura 01
    Writing application                      : Lavf54.59.106
    
    Video
    ID                                       : 1
    Format                                   : AVC
    Format/Info                              : Advanced Video Codec
    Format profile                           : [email protected]
    Format settings, CABAC                   : Yes
    Format settings, ReFrames                : 7 frames
    Codec ID                                 : avc1
    Codec ID/Info                            : Advanced Video Coding
    Duration                                 : 23mn 39s
    Bit rate                                 : 1 862 Kbps
    Width                                    : 1 280 pixels
    Height                                   : 720 pixels
    Display aspect ratio                     : 16:9
    Frame rate mode                          : Constant
    Frame rate                               : 23.976 fps
    Color space                              : YUV
    Chroma subsampling                       : 4:2:0
    Bit depth                                : 8 bits
    Scan type                                : Progressive
    Bits/(Pixel*Frame)                       : 0.084
    Stream size                              : 315 MiB (91%)
    Writing library                          : x264 core 129 r2230 1cffe9f
    Encoding settings                        : cabac=1 / ref=8 / deblock=1:-1:-1 / analyse=0x3:0x133 / me=esa / subme=11 / psy=1 / psy_rd=1.00:0.15 / mixed_ref=1 / me_range=32 / chroma_me=1 / trellis=2 / 8x8dct=1 / cqm=0 / deadzone=21,11 / fast_pskip=0 / chroma_qp_offset=-3 / threads=3 / lookahead_threads=1 / sliced_threads=0 / nr=0 / decimate=1 / interlaced=0 / bluray_compat=0 / constrained_intra=0 / bframes=16 / b_pyramid=1 / b_adapt=2 / b_bias=0 / direct=3 / weightb=1 / open_gop=0 / weightp=2 / keyint=250 / keyint_min=23 / scenecut=40 / intra_refresh=0 / rc_lookahead=50 / rc=crf / mbtree=1 / crf=19.0 / qcomp=0.60 / qpmin=0 / qpmax=69 / qpstep=4 / ip_ratio=1.40 / aq=1:1.00
    Language                                 : Japanese
    
    Audio
    ID                                       : 2
    Format                                   : AAC
    Format/Info                              : Advanced Audio Codec
    Format profile                           : LC
    Codec ID                                 : 40
    Duration                                 : 23mn 39s
    Bit rate mode                            : Constant
    Bit rate                                 : 192 Kbps
    Channel(s)                               : 2 channels
    Channel positions                        : Front: L R
    Sampling rate                            : 48.0 KHz
    Compression mode                         : Lossy
    Stream size                              : 31.9 MiB (9%)
    Language                                 : Japanese
    
    Menu
    00:00:00.000                             : Prologue
    00:02:06.930                             : Opening
    00:03:36.940                             : Part A
    00:12:59.880                             : Part B
    00:21:54.870                             : Ending
    00:23:24.920                             : Preview
    
    




    Geschützter Bereich - Bedanke dich beim Poster, um den Bereich sehen zu können
    Hier erfährst Du wie Du Dich bedanken kannst oder werde jetzt Premium Mitglied ab einer Spende von 5€ und erhalte sofortigen Zugriff auf den Downloadbereich!

    [Links sind nur für registrierte und aktivierte Nutzer sichtbar. Klicke hier um dich zu registrieren.]
    !!!Alle Anliegen bezüglich Uploads werden nur mit direktem Threadlink zum Angebot bearbeitet!!!

    Re-Uploadanfragen nur per PN - Ihr könnt mir auch Listen schicken

    Re-Uploads erfolgen meist innerhalb 24h, kann aber auch bis zu 7 Tage dauern

    [Links sind nur für registrierte und aktivierte Nutzer sichtbar. Klicke hier um dich zu registrieren.] | [Links sind nur für registrierte und aktivierte Nutzer sichtbar. Klicke hier um dich zu registrieren.] | >[Links sind nur für registrierte und aktivierte Nutzer sichtbar. Klicke hier um dich zu registrieren.]<
    [Links sind nur für registrierte und aktivierte Nutzer sichtbar. Klicke hier um dich zu registrieren.]

  2. 8 Benutzer sagen Danke:

    Axel87 (3. September 2016),Kalchi (8. July 2016),midnighter (2. August 2016),remiel (16. September 2016),SnowCat (10. July 2016),TaigaAisaka (30. August 2016),Tidus18 (25. August 2016),xhellsingx (20. September 2016)

Lesezeichen

Berechtigungen

  • Neue Themen erstellen: Nein
  • Themen beantworten: Nein
  • Anhänge hochladen: Nein
  • Beiträge bearbeiten: Nein
  •  

1 2 3 4 5 6 7 8 9 10 11 12 13 14 15 16 17 18 19 20 21 22 23 24 25 26 27 28 29 30 31 32 33 34 35 36 37 38 39 40 41 42 43 44 45 46 47 48 49 50 51 52 53 54 55 56 57 58 59 60 61 62 63 64 65 66 67 68 69 70 71 72 73 74 75 76 77 78 79 80 81 82 83 84 85 86 87 88 89 90 91 92 93 94 95 96 97 98 99 100 101 102 103 104 105 106 107 108 109 110 111 112 113 114 115 116 117 118 119 120 121 122 123 124 125 126 127 128 129 130 131 132 133 134 135 136 137 138 139 140 141 142 143 144 145 146 147 148 149 150 151 152 153 154 155 156 157 158