Ergebnis 1 bis 6 von 6

Thema: Shinmai Maou no Testament BURST [Laufend][Jap-Dub][Ger-Sub][720p/1080p-10Bit][BluRay] - ~TnF~

Dieser Thread wurde noch nicht bewertet. Bewerte ihn doch, wenn er dir gefällt!
  1. #1
    Uploader Avatar von Filbo11
    Registriert seit
    Jan 2015
    Beiträge
    927
    Punkte
    17.213
    Errungenschaften:
    TomodachisErste Gruppe1 Jahr registriertCreated Album picturesTagger First Class

    Shinmai Maou no Testament BURST [Laufend][Jap-Dub][Ger-Sub][720p/1080p-10Bit][BluRay] - ~TnF~

    Shinmai Maou no Testament Burst
    新妹魔王の契約者 Burst
    The Testament of Sister New Devil BURST
    Shinmai Maou no Testament Season 2




    Beschreibung

    Basara, Mio, Maria und Yuki leben ihr Leben weiter wie zuvor, ohne zu wissen, was als Nächstes auf sie zukommt. Doch das alltägliche Leben beginnt immer weiter aus dem Ruder zu laufen, als dann das Sportfestival ihrer Schule vor der Tür steht. Von Magie beeinflusste Menschen greifen Basara und den Rest seiner Familie an. Während dieser versucht, nach dem Vorfall immer stärker zu werden, taucht urplötzlich auch noch Marias ältere Schwester Rukia auf, die sie mit in das Dämonenreich nehmen will und ihnen etwas von einem wichtigen Krieg zwischen zwei Parteien erzählt. Werden Mio und die anderen mit in das Dämonenreich gehen?


    Format: mkv
    Dauer: ca. 24 min
    Größe: ca. 369 MB [720p 10Bit] / 997 MB [1080p 10Bit]
    Sprache: Japanisch
    Untertitel: Deutsch
    Group: [Tengoku no Fansub]
    Hoster: Uploaded.net & Share-Online.biz
    kein PW


    Screenshots & MediaInfo

    720p 10Bit
    [Links sind nur für registrierte und aktivierte Nutzer sichtbar. Klicke hier um dich zu registrieren.]

    Code:
    General
    
    Complete name               : [-TnF-][BD] Shinmai Maou no Testament BURST 01 [720p][10Bit][H264][AAC][d5e3a7a3].mkv
    Format                      : Matroska
    Format version              : Version 4 / Version 2
    File size                   : 369 MiB
    Duration                    : 25mn 41s
    Overall bit rate            : 2 009 Kbps
    Encoded date                : UTC 2016-03-26 01:53:28
    Writing application         : mkvmerge v8.5.2 ('Crosses') 32bit
    Writing library             : libebml v1.3.3 + libmatroska v1.4.4
    Attachments                 : candarab_0.ttf / msmincho_0.ttc
    
    Video
    ID                          : 1
    Format                      : AVC
    Format/Info                 : Advanced Video Codec
    Format profile              : High [email protected]
    Format settings, CABAC      : Yes
    Format settings, ReFrames   : 12 frames
    Codec ID                    : V_MPEG4/ISO/AVC
    Duration                    : 25mn 41s
    Bit rate                    : 1 763 Kbps
    Width                       : 1 280 pixels
    Height                      : 720 pixels
    Display aspect ratio        : 16:9
    Frame rate mode             : Constant
    Frame rate                  : 23.976 (24000/1001) fps
    Color space                 : YUV
    Chroma subsampling          : 4:2:0
    Bit depth                   : 10 bits
    Scan type                   : Progressive
    Bits/(Pixel*Frame)          : 0.080
    Stream size                 : 324 MiB (88%)
    Writing library             : x264 core 129 r2245+729M 1a52e03
    Encoding settings           : cabac=1 / ref=12 / deblock=1:1:1 / analyse=0x3:0x133 / me=umh / subme=10 / psy=1 / fade_compensate=0.00 / psy_rd=1.00:0.00 / mixed_ref=1 / me_range=24 / chroma_me=1 / trellis=2 / 8x8dct=1 / cqm=0 / deadzone=21,11 / fast_pskip=0 / chroma_qp_offset=-2 / threads=12 / lookahead_threads=3 / sliced_threads=0 / nr=0 / decimate=0 / interlaced=0 / bluray_compat=0 / constrained_intra=0 / fgo=0 / bframes=12 / b_pyramid=2 / b_adapt=2 / b_bias=0 / direct=3 / weightb=1 / open_gop=0 / weightp=2 / keyint=250 / keyint_min=23 / scenecut=40 / intra_refresh=0 / rc_lookahead=60 / rc=crf / mbtree=1 / crf=17.0 / qcomp=0.60 / qpmin=0 / qpmax=81 / qpstep=4 / ip_ratio=1.40 / aq=2:1.10
    Default                     : Yes
    Forced                      : No
    
    Audio
    ID                          : 2
    Format                      : AAC
    Format/Info                 : Advanced Audio Codec
    Format profile              : LC
    Codec ID                    : A_AAC
    Duration                    : 25mn 41s
    Bit rate                    : 192 Kbps
    Channel(s)                  : 2 channels
    Channel positions           : Front: L R
    Sampling rate               : 44.1 KHz
    Frame rate                  : 43.066 fps (1024 spf)
    Compression mode            : Lossy
    Stream size                 : 34.8 MiB (9%)
    Language                    : Japanese
    Default                     : Yes
    Forced                      : No
    
    Text
    ID                          : 3
    Format                      : ASS
    Codec ID                    : S_TEXT/ASS
    Codec ID/Info               : Advanced Sub Station Alpha
    Duration                    : 24mn 6s
    Bit rate                    : 89 bps
    Count of elements           : 276
    Compression mode            : Lossless
    Stream size                 : 15.7 KiB (0%)
    Language                    : German
    Default                     : Yes
    Forced                      : No
    
    Menu
    00:00:00.000                : de:Opening
    00:01:32.009                : de:Was ich für dich tun kann
    00:23:36.248                : de:Ending
    00:25:06.213                : de:Vorschau


    1080p 10Bit
    [Links sind nur für registrierte und aktivierte Nutzer sichtbar. Klicke hier um dich zu registrieren.]

    Code:
    General
    
    Complete name               : [-TnF-][BD] Shinmai Maou no Testament BURST 01 [1080p][10Bit][H264][AAC][f0f3798e].mkv
    Format                      : Matroska
    Format version              : Version 4 / Version 2
    File size                   : 998 MiB
    Duration                    : 25mn 41s
    Overall bit rate            : 5 431 Kbps
    Encoded date                : UTC 2016-03-26 01:53:50
    Writing application         : mkvmerge v8.5.2 ('Crosses') 32bit
    Writing library             : libebml v1.3.3 + libmatroska v1.4.4
    Attachments                 : candarab_0.ttf / msmincho_0.ttc
    
    Video
    ID                          : 1
    Format                      : AVC
    Format/Info                 : Advanced Video Codec
    Format profile              : High [email protected]
    Format settings, CABAC      : Yes
    Format settings, ReFrames   : 12 frames
    Codec ID                    : V_MPEG4/ISO/AVC
    Duration                    : 25mn 41s
    Bit rate                    : 5 186 Kbps
    Width                       : 1 920 pixels
    Height                      : 1 080 pixels
    Display aspect ratio        : 16:9
    Frame rate mode             : Constant
    Frame rate                  : 23.976 (24000/1001) fps
    Color space                 : YUV
    Chroma subsampling          : 4:2:0
    Bit depth                   : 10 bits
    Scan type                   : Progressive
    Bits/(Pixel*Frame)          : 0.104
    Stream size                 : 953 MiB (95%)
    Writing library             : x264 core 129 r2245+729M 1a52e03
    Encoding settings           : cabac=1 / ref=12 / deblock=1:1:1 / analyse=0x3:0x133 / me=umh / subme=10 / psy=1 / fade_compensate=0.00 / psy_rd=1.00:0.00 / mixed_ref=1 / me_range=24 / chroma_me=1 / trellis=2 / 8x8dct=1 / cqm=0 / deadzone=21,11 / fast_pskip=0 / chroma_qp_offset=-2 / threads=12 / lookahead_threads=3 / sliced_threads=0 / nr=0 / decimate=0 / interlaced=0 / bluray_compat=0 / constrained_intra=0 / fgo=0 / bframes=12 / b_pyramid=2 / b_adapt=2 / b_bias=0 / direct=3 / weightb=1 / open_gop=0 / weightp=2 / keyint=250 / keyint_min=23 / scenecut=40 / intra_refresh=0 / rc_lookahead=60 / rc=crf / mbtree=1 / crf=17.0 / qcomp=0.60 / qpmin=0 / qpmax=81 / qpstep=4 / ip_ratio=1.40 / aq=2:1.05
    Default                     : Yes
    Forced                      : No
    
    Audio
    ID                          : 2
    Format                      : AAC
    Format/Info                 : Advanced Audio Codec
    Format profile              : LC
    Codec ID                    : A_AAC
    Duration                    : 25mn 41s
    Bit rate                    : 192 Kbps
    Channel(s)                  : 2 channels
    Channel positions           : Front: L R
    Sampling rate               : 44.1 KHz
    Frame rate                  : 43.066 fps (1024 spf)
    Compression mode            : Lossy
    Stream size                 : 34.8 MiB (3%)
    Language                    : Japanese
    Default                     : Yes
    Forced                      : No
    
    Text
    ID                          : 3
    Format                      : ASS
    Codec ID                    : S_TEXT/ASS
    Codec ID/Info               : Advanced Sub Station Alpha
    Duration                    : 24mn 6s
    Bit rate                    : 89 bps
    Count of elements           : 276
    Compression mode            : Lossless
    Stream size                 : 15.7 KiB (0%)
    Language                    : German
    Default                     : Yes
    Forced                      : No
    
    Menu
    00:00:00.000                : de:Opening
    00:01:32.009                : de:Was ich für dich tun kann
    00:23:36.248                : de:Ending
    00:25:06.213                : de:Vorschau


    Alle Mirrors untereinander kompatibel
    Folgen einzeln ladbar
    Folge 7/10 online


    Download

    Geschützter Bereich - Bedanke dich beim Poster, um den Bereich sehen zu können
    Hier erfährst Du wie Du Dich bedanken kannst oder werde jetzt Premium Mitglied ab einer Spende von 5€ und erhalte sofortigen Zugriff auf den Downloadbereich!




    Geändert von Filbo11 (31. October 2016 um 20:52 Uhr) Grund: folge 7 hinzugefügt

    [Links sind nur für registrierte und aktivierte Nutzer sichtbar. Klicke hier um dich zu registrieren.]

    Ich wäre allen sehr dankbar, die mir gravierende Fehler in meinen Releases per PN melden

  2. 58 Benutzer sagen Danke:

    Anzeigen

    Akai (31. July 2016),Aluaran (22. July 2016),arkterranigma (24. November 2016),Artheanos (4. November 2016),BlackDragon333 (22. August 2016),BlackPhoenix (20. May 2016),Buze (23. May 2016),Cande (11. April 2016),cfg1340 (22. July 2016),Daniel0201 (14. November 2016),fabio1221 (29. May 2016),Gatti1983 (12. June 2016),Gorshi (23. August 2016),iPwnage (9. August 2016),Kalchi (30. July 2016),Kartox (24. July 2016),kei (6. July 2016),KeXiuS (1. June 2016),Kibapadda (31. October 2016),KiritoDerSchwertKämpfer (17. October 2016),Kupan (5. July 2016),KVI512 (21. July 2016),Lautrerbomber (23. May 2016),Miauundso (22. July 2016),midnighter (21. June 2016),Monkey (19. September 2016),Mr.Shit (24. July 2016),neon (1. May 2016),neron86 (19. August 2016),niccoboss (30. June 2016),old nick (11. April 2016),old nick 666 (24. November 2016),OokamiHoro (27. May 2016),Osaftchen (9. May 2016),piggsylol (27. November 2016),Pure (26. July 2016),Regi (11. April 2016),Rikune (12. June 2016),rinnegan93 (24. November 2016),Ronae (11. April 2016),Roxy (19. August 2016),Roysento (21. August 2016),RuffyD (31. July 2016),Sheppard360 (2. October 2016),Sora (23. May 2016),syman8989 (16. July 2016),Taiho (8. May 2016),TakashiKudo (10. July 2016),Tekay (24. June 2016),TrM (19. June 2016),tsiLyZ (7. October 2016),Virgel (4. October 2016),Vivere (4. September 2016),WorldDisney (4. July 2016),Xidor (15. June 2016),Yaranaika (21. July 2016),Zapzerap (25. June 2016),zockerfreund (24. June 2016)

  3. #2
    Uploader Avatar von Filbo11
    Registriert seit
    Jan 2015
    Beiträge
    927
    Punkte
    17.213
    Errungenschaften:
    TomodachisErste Gruppe1 Jahr registriertCreated Album picturesTagger First Class

    AW: Shinmai Maou no Testament BURST [Laufend][Jap-Dub][Ger-Sub][720p/1080p-10Bit][BluRay] - ~TnF~

    folge 2 hinzugefügt

    [Links sind nur für registrierte und aktivierte Nutzer sichtbar. Klicke hier um dich zu registrieren.]

    Ich wäre allen sehr dankbar, die mir gravierende Fehler in meinen Releases per PN melden

  4. 2 Benutzer sagen Danke:

    Mr.Shit (24. July 2016),Sora (1. June 2016)

  5. #3
    Uploader Avatar von Filbo11
    Registriert seit
    Jan 2015
    Beiträge
    927
    Punkte
    17.213
    Errungenschaften:
    TomodachisErste Gruppe1 Jahr registriertCreated Album picturesTagger First Class

    AW: Shinmai Maou no Testament BURST [Laufend][Jap-Dub][Ger-Sub][720p/1080p-10Bit][BluRay] - ~TnF~

    folge 3 hinzugefügt

    [Links sind nur für registrierte und aktivierte Nutzer sichtbar. Klicke hier um dich zu registrieren.]

    Ich wäre allen sehr dankbar, die mir gravierende Fehler in meinen Releases per PN melden

  6. 1 Benutzer sagt Danke:

    Sora (1. June 2016)

  7. #4
    Uploader Avatar von Filbo11
    Registriert seit
    Jan 2015
    Beiträge
    927
    Punkte
    17.213
    Errungenschaften:
    TomodachisErste Gruppe1 Jahr registriertCreated Album picturesTagger First Class

    AW: Shinmai Maou no Testament BURST [Laufend][Jap-Dub][Ger-Sub][720p/1080p-10Bit][BluRay] - ~TnF~

    folge 4 & 5 hinzugefügt

    [Links sind nur für registrierte und aktivierte Nutzer sichtbar. Klicke hier um dich zu registrieren.]

    Ich wäre allen sehr dankbar, die mir gravierende Fehler in meinen Releases per PN melden

  8. #5
    Uploader Avatar von Filbo11
    Registriert seit
    Jan 2015
    Beiträge
    927
    Punkte
    17.213
    Errungenschaften:
    TomodachisErste Gruppe1 Jahr registriertCreated Album picturesTagger First Class

    AW: Shinmai Maou no Testament BURST [Laufend][Jap-Dub][Ger-Sub][720p/1080p-10Bit][BluRay] - ~TnF~

    folge 6 hinzugefügt

    [Links sind nur für registrierte und aktivierte Nutzer sichtbar. Klicke hier um dich zu registrieren.]

    Ich wäre allen sehr dankbar, die mir gravierende Fehler in meinen Releases per PN melden

  9. 2 Benutzer sagen Danke:

    Cande (20. September 2016),OokamiHoro (20. September 2016)

  10. #6
    Uploader Avatar von Filbo11
    Registriert seit
    Jan 2015
    Beiträge
    927
    Punkte
    17.213
    Errungenschaften:
    TomodachisErste Gruppe1 Jahr registriertCreated Album picturesTagger First Class

    AW: Shinmai Maou no Testament BURST [Laufend][Jap-Dub][Ger-Sub][720p/1080p-10Bit][BluRay] - ~TnF~

    folge 7 hinzugefügt

    [Links sind nur für registrierte und aktivierte Nutzer sichtbar. Klicke hier um dich zu registrieren.]

    Ich wäre allen sehr dankbar, die mir gravierende Fehler in meinen Releases per PN melden

  11. 1 Benutzer sagt Danke:

    OokamiHoro (27. November 2016)

Stichworte

Lesezeichen

Berechtigungen

  • Neue Themen erstellen: Nein
  • Themen beantworten: Nein
  • Anhänge hochladen: Nein
  • Beiträge bearbeiten: Nein
  •  

1 2 3 4 5 6 7 8 9 10 11 12 13 14 15 16 17 18 19 20 21 22 23 24 25 26 27 28 29 30 31 32 33 34 35 36 37 38 39 40 41 42 43 44 45 46 47 48 49 50 51 52 53 54 55 56 57 58 59 60 61 62 63 64 65 66 67 68 69 70 71 72 73 74 75 76 77 78 79 80 81 82 83 84 85 86 87 88 89 90 91 92 93 94 95 96 97 98 99 100 101 102 103 104 105 106 107 108 109 110 111 112 113 114 115 116 117 118 119 120 121 122 123 124 125 126 127 128 129 130 131 132 133 134 135 136 137 138 139 140 141 142 143 144 145 146 147 148 149 150 151 152 153 154 155 156 157 158