Ergebnis 1 bis 1 von 1

Thema: Strike the Blood [Jap-Dub][Ger-Sub][720p][HDTV]

Dieser Thread wurde noch nicht bewertet. Bewerte ihn doch, wenn er dir gefällt!
  1. #1
    United we Stand Avatar von 00Ryuji00
    Registriert seit
    Oct 2012
    Beiträge
    3.902
    Punkte
    99.938
    Errungenschaften:
    TomodachisGang LeaderHikikomoriTagger Amateur50000 Erfahrungspunkte

    Strike the Blood [Jap-Dub][Ger-Sub][720p][HDTV]


    Strike the Blood
    ストライク・ザ・ブラッド






    Kurzbeschreibung:
    Zitat Zitat von AniSearch.com
    Itogami City, eine künstliche Insel weit draußen im Pazifik 300km südlich von Tokio. Hier finden mystische Gestalten wie Vampire, Werwölfe und Halb-Dämonen ein Zuhause. Unter ihnen befindet sich auch der Schüler Akatsuki Kojou. Was die Wenigsten wissen, durch eine schicksalhafte Begegnung ist er der vierte Urahn der Vampire und damit der Stärkste ihrer Art geworden. Mächtig genug, um es mit der Armee eines Landes aufzunehmen, lässt ihn die Regierung nicht unbeaufsichtigt herum laufen und beauftragt daher die junge Schwert Schamanin Himegari Yukina mit seiner Überwachung. Zusammen versuchen sie heraus zu finden, wie Kojou zu seinen Kräften gekommen ist und was aus seinem Vorgänger Kaleid Blood geworden ist.


    Spieldauer: 24min
    Genre: Action
    Nebengenres: Action, Drama, Ecchi, Fantasy, Harem, Komödie, Mystery, Männlich, Romanze
    Jahr: 2013
    Sprache: Japanisch
    Untertitel: Deutsch
    Größe pro Folge:
    Episodenanzahl: 24/24
    Format: mp4
    Auflösung: 720p (16:9)
    Videocodec: x264 (AVC)
    Releasegruppe: BNFs
    Hoster: Share-Online, Uploaded


    MediaInfo
    Code:
    
    Format                                   : MPEG-4
    Format profile                           : Base Media
    Codec ID                                 : isom
    File size                                : 469 MiB
    Duration                                 : 23mn 39s
    Overall bit rate mode                    : Variable
    Overall bit rate                         : 2 773 Kbps
    Encoded date                             : UTC 2013-11-06 21:25:08
    Tagged date                              : UTC 2013-11-06 21:25:08
    Writing application                      : Yamb 2.1.0.0 [http://yamb.unite-video.com]
    
    Video
    ID                                       : 1
    Format                                   : AVC
    Format/Info                              : Advanced Video Codec
    Format profile                           : [email protected]
    Format settings, CABAC                   : Yes
    Format settings, ReFrames                : 9 frames
    Codec ID                                 : avc1
    Codec ID/Info                            : Advanced Video Coding
    Duration                                 : 23mn 39s
    Bit rate                                 : 2 517 Kbps
    Maximum bit rate                         : 21.7 Mbps
    Width                                    : 1 280 pixels
    Height                                   : 720 pixels
    Display aspect ratio                     : 16:9
    Frame rate mode                          : Constant
    Frame rate                               : 23.976 fps
    Color space                              : YUV
    Chroma subsampling                       : 4:2:0
    Bit depth                                : 8 bits
    Scan type                                : Progressive
    Bits/(Pixel*Frame)                       : 0.114
    Stream size                              : 426 MiB (91%)
    Writing library                          : x264 core 125 r2200+677M 3a754e7
    Encoding settings                        : cabac=1 / ref=9 / deblock=1:0:0 / analyse=0x3:0x133 / me=umh / subme=10 / psy=1 / fade_compensate=0.00 / psy_rd=1.00:0.00 / mixed_ref=1 / me_range=24 / chroma_me=1 / trellis=2 / 8x8dct=1 / cqm=0 / deadzone=21,11 / fast_pskip=0 / chroma_qp_offset=-2 / threads=6 / lookahead_threads=1 / sliced_threads=0 / nr=0 / decimate=0 / interlaced=0 / bluray_compat=0 / constrained_intra=0 / fgo=0 / bframes=16 / b_pyramid=2 / b_adapt=2 / b_bias=0 / direct=3 / weightb=1 / open_gop=0 / weightp=2 / keyint=250 / keyint_min=23 / scenecut=40 / intra_refresh=0 / rc_lookahead=60 / rc=crf / mbtree=1 / crf=16.0000 / qcomp=0.60 / qpmin=0 / qpmax=69 / qpstep=4 / vbv_maxrate=31250 / vbv_bufsize=31250 / crf_max=0.0 / nal_hrd=none / ip_ratio=1.40 / aq=1:1.00
    Encoded date                             : UTC 2013-11-06 21:25:08
    Tagged date                              : UTC 2013-11-06 21:25:30
    
    Audio
    ID                                       : 2
    Format                                   : AAC
    Format/Info                              : Advanced Audio Codec
    Format profile                           : LC
    Codec ID                                 : 40
    Duration                                 : 23mn 39s
    Bit rate mode                            : Variable
    Bit rate                                 : 252 Kbps
    Maximum bit rate                         : 258 Kbps
    Channel count                            : 2 channels
    Channel positions                        : Front: L R
    Sampling rate                            : 48.0 KHz
    Compression mode                         : Lossy
    Stream size                              : 42.7 MiB (9%)
    Encoded date                             : UTC 2013-11-06 21:25:27
    Tagged date                              : UTC 2013-11-06 21:25:30
    
    




    Geschützter Bereich - Bedanke dich beim Poster, um den Bereich sehen zu können
    Hier erfährst Du wie Du Dich bedanken kannst oder werde jetzt Premium Mitglied ab einer Spende von 5€ und erhalte sofortigen Zugriff auf den Downloadbereich!
    !!!Alle Anliegen bezüglich Uploads werden nur mit direktem Threadlink zum Angebot bearbeitet!!!

    Re-Uploadanfragen nur per PN - Ihr könnt mir auch Listen schicken

    Re-Uploads erfolgen meist innerhalb 24h, kann aber auch bis zu 7 Tage dauern

    [Links sind nur für registrierte und aktivierte Nutzer sichtbar. Klicke hier um dich zu registrieren.] | [Links sind nur für registrierte und aktivierte Nutzer sichtbar. Klicke hier um dich zu registrieren.] | >[Links sind nur für registrierte und aktivierte Nutzer sichtbar. Klicke hier um dich zu registrieren.]<
    [Links sind nur für registrierte und aktivierte Nutzer sichtbar. Klicke hier um dich zu registrieren.]

  2. 35 Benutzer sagen Danke:

    Akio (23. November 2015),alucard77 (12. February 2016),animesoulx3 (19. January 2016),B3nnoX (13. December 2015),beckiiyy1 (28. November 2015),Belbo (8. September 2016),BlackOut84 (2. April 2016),Cande (10. August 2015),Cooky1988 (18. August 2016),Cú Chulainn (22. June 2016),Drachengott (24. August 2015),El Senna (8. January 2016),EniMan (19. October 2015),Firefly (28. December 2015),foiderbua (5. February 2016),HappyTree (3. October 2015),Hi im Shini (8. December 2015),Hiruja (20. August 2016),Kalchi (18. July 2016),Kurzey (22. August 2015),lysopp (23. January 2016),midnighter (13. August 2015),n0rth (13. August 2016),Nasumy (9. January 2016),NLHTeddyNLH (18. March 2016),Rittai (16. August 2016),Solinger34 (24. November 2015),TaigaAisaka (28. March 2016),Terrorhasii.x3 (3. June 2016),TesserLP (8. September 2015),Tevion32 (12. February 2016),THOR543 (17. November 2016),Tsu (27. November 2015),xhellsingx (23. February 2016),Yishar (25. September 2016)

Lesezeichen

Berechtigungen

  • Neue Themen erstellen: Nein
  • Themen beantworten: Nein
  • Anhänge hochladen: Nein
  • Beiträge bearbeiten: Nein
  •  

1 2 3 4 5 6 7 8 9 10 11 12 13 14 15 16 17 18 19 20 21 22 23 24 25 26 27 28 29 30 31 32 33 34 35 36 37 38 39 40 41 42 43 44 45 46 47 48 49 50 51 52 53 54 55 56 57 58 59 60 61 62 63 64 65 66 67 68 69 70 71 72 73 74 75 76 77 78 79 80 81 82 83 84 85 86 87 88 89 90 91 92 93 94 95 96 97 98 99 100 101 102 103 104 105 106 107 108 109 110 111 112 113 114 115 116 117 118 119 120 121 122 123 124 125 126 127 128 129 130 131 132 133 134 135 136 137 138 139 140 141 142 143 144 145 146 147 148 149 150 151 152 153 154 155 156 157 158