Ergebnis 1 bis 1 von 1

Thema: Top wo Nerae! + Special [Jap-Dub][Ger-Eng-Sub][720p-10Bit][BluRay] - R-R - MeisterMutaito

Dieser Thread wurde noch nicht bewertet. Bewerte ihn doch, wenn er dir gefällt!
  1. #1
    Uploader Avatar von Filbo11
    Registriert seit
    Jan 2015
    Beiträge
    931
    Punkte
    17.281
    Errungenschaften:
    TomodachisErste Gruppe1 Jahr registriertCreated Album picturesTagger First Class

    Top wo Nerae! + Special [Jap-Dub][Ger-Eng-Sub][720p-10Bit][BluRay] - R-R - MeisterMutaito

    Top o Nerae!
    トップをねらえ!
    Gunbuster
    Top wo Nerae!, Aim for the Top!




    Beschreibung

    Anfang des einundzwanzigsten Jahrhunderts: Aliens haben es auf die Erde abgesehen und drohen die Menschheit auszulöschen. Gunbuster ist eine Supermaschine, die gegen die Aliens eingesetzt werden soll. Noriko, die Tochter eines Weltraumpiloten, der bei einem Einsatz von Aliens getötet wurde, gehört zu einer Elitetruppe, die zur Verteidigung der Menschheit ins All geschickt wurde. Sind Noriko und ihre Gefährten ausreichend ausgerüstet, um in der feindlichen Umgebung einen Sieg über die Aliens zu erkämpfen und zu welchem Preis...?

    Format: mkv
    Dauer: ca. 25 min
    Größe: ca. ~1 GB
    Episodenanzahl: 6/6 + 9/9
    Sprache: Japanisch
    Untertitel: Deutsch & Englisch
    Group: [R-R] & [MeisterMutaito]
    Hoster: Uploaded.net & Share-Online.biz
    Passwort: byFilbo11


    Screenshots & MediaInfo

    Spoiler
    [Links sind nur für registrierte und aktivierte Nutzer sichtbar. Klicke hier um dich zu registrieren.]

    Code:
    General
    
    Complete name               : Top wo Nerae! 01 - Schock! Kazumi und ich, Raumpiloten! [720p][10-bit][Jap.Dub][Ger.Eng.Sub][R-R][MeisterMutaito].mkv
    Format                      : Matroska
    Format version              : Version 2
    File size                   : 1.13 GiB
    Duration                    : 25 min
    Overall bit rate            : 6 425 kb/s
    Movie name                  : Top wo Nerae! 01 - Schock! Kazumi und ich, Raumpiloten!?
    Encoded date                : UTC 2012-05-15 07:39:46
    Writing application         : mkvmerge v5.0.0 ('Die Wahre Liebe') built on Sep 25 2011 20:33:49
    Writing library             : libebml v1.2.2 + libmatroska v1.3.0
    Attachments                 : BRALABC0_0.TTF / BRUSHSCI.TTF / BrushScriptStd.otf / CALIST.TTF / CALISTB.TTF / CALISTBI.TTF / CALISTI.TTF / FORTE.TTF / Getaway.ttf / jancieni.ttf / jancient.ttf / tt0121m_.ttf / tt0728m_.ttf / TT0952M_.TTF / tt0990m_.ttf / tt1214m_.ttf / 65659___.TTF / ARRUSK.TTF / ARRUSKI.TTF / AVGARDN.TTF / AVGARDNI.TTF / BELWEC.TTF / BENGUIAB.TTF / Bolide-Regular.ttf / BOLTB.TTF / Bolton_sans.ttf / bonzai.ttf / BurstMyBubble.ttf / comic.ttf / comicbd.ttf / DAUPHINN.TTF / DOMB.TTF / forgotten_uncial.ttf / FRZQUADB.TTF / FRZQUADN.TTF / j.d.ttf / JAPAB___.TTF / LEVIBRUSH.TTF / manjiro.ttf / Rippen Bold.ttf / Rippen.ttf / ShatteredPrint.ttf / ShatteredPrintBold.ttf / ShatteredPrintItalic.ttf / TECHNICI.TTF / TECHNICN.TTF / ZURCHBXC.TTF
    
    Video
    ID                          : 1
    Format                      : AVC
    Format/Info                 : Advanced Video Codec
    Format profile              : High [email protected]
    Format settings, CABAC      : Yes
    Format settings, ReFrames   : 8 frames
    Muxing mode                 : Header stripping
    Codec ID                    : V_MPEG4/ISO/AVC
    Duration                    : 25 min
    Bit rate                    : 5 529 kb/s
    Width                       : 952 pixels
    Height                      : 716 pixels
    Display aspect ratio        : 4:3
    Frame rate mode             : Constant
    Frame rate                  : 23.976 (24000/1001) FPS
    Color space                 : YUV
    Chroma subsampling          : 4:2:0
    Bit depth                   : 10 bits
    Scan type                   : Progressive
    Bits/(Pixel*Frame)          : 0.338
    Stream size                 : 997 MiB (86%)
    Title                       : [R-R][MeisterMutaito]
    Writing library             : x264 core 120 r2164 da19765
    Encoding settings           : cabac=1 / ref=8 / deblock=1:0:0 / analyse=0x3:0x133 / me=umh / subme=9 / psy=1 / psy_rd=1.00:0.00 / mixed_ref=1 / me_range=16 / chroma_me=1 / trellis=2 / 8x8dct=1 / cqm=0 / deadzone=21,11 / fast_pskip=1 / chroma_qp_offset=-2 / threads=12 / sliced_threads=0 / nr=0 / decimate=1 / interlaced=0 / bluray_compat=0 / constrained_intra=0 / bframes=3 / b_pyramid=2 / b_adapt=2 / b_bias=0 / direct=3 / weightb=1 / open_gop=0 / weightp=2 / keyint=250 / keyint_min=23 / scenecut=40 / intra_refresh=0 / rc_lookahead=60 / rc=crf / mbtree=1 / crf=19.0 / qcomp=0.60 / qpmin=0 / qpmax=81 / qpstep=4 / ip_ratio=1.40 / aq=1:1.00
    Language                    : German
    Default                     : Yes
    Forced                      : No
    
    Audio #1
    ID                          : 2
    Format                      : AC-3
    Format/Info                 : Audio Coding 3
    Mode extension              : CM (complete main)
    Format settings, Endianness : Big
    Muxing mode                 : Header stripping
    Codec ID                    : A_AC3
    Duration                    : 25 min
    Bit rate mode               : Constant
    Bit rate                    : 640 kb/s
    Channel(s)                  : 2 channels
    Channel(s)_Original         : 6 channels
    Channel positions           : Front: L C R, Side: L R, LFE
    Sampling rate               : 48.0 kHz
    Frame rate                  : 31.250 FPS (1536 spf)
    Compression mode            : Lossy
    Stream size                 : 115 MiB (10%)
    Title                       : Japanisch (AC3 5.1 NEW)
    Language                    : Japanese
    Default                     : Yes
    Forced                      : No
    
    Audio #2
    ID                          : 3
    Format                      : AC-3
    Format/Info                 : Audio Coding 3
    Mode extension              : CM (complete main)
    Format settings, Endianness : Big
    Muxing mode                 : Header stripping
    Codec ID                    : A_AC3
    Duration                    : 25 min
    Bit rate mode               : Constant
    Bit rate                    : 128 kb/s
    Channel(s)                  : 2 channels
    Channel positions           : Front: L R
    Sampling rate               : 48.0 kHz
    Frame rate                  : 31.250 FPS (1536 spf)
    Compression mode            : Lossy
    Stream size                 : 23.1 MiB (2%)
    Title                       : Japanisch (AC3 2.0 ORIGINAL)
    Language                    : Japanese
    Default                     : No
    Forced                      : No
    
    Text #1
    ID                          : 4
    Format                      : ASS
    Codec ID                    : S_TEXT/ASS
    Codec ID/Info               : Advanced Sub Station Alpha
    Compression mode            : Lossless
    Title                       : Deutsch (ASS)
    Language                    : German
    Default                     : Yes
    Forced                      : No
    
    Text #2
    ID                          : 5
    Format                      : UTF-8
    Codec ID                    : S_TEXT/UTF8
    Codec ID/Info               : UTF-8 Plain Text
    Title                       : Deutsch (SRT)
    Language                    : German
    Default                     : No
    Forced                      : No
    
    Text #3
    ID                          : 6
    Format                      : ASS
    Codec ID                    : S_TEXT/ASS
    Codec ID/Info               : Advanced Sub Station Alpha
    Compression mode            : Lossless
    Title                       : Englisch (ASS)
    Language                    : English
    Default                     : No
    Forced                      : No


    Alle Mirrors untereinander kompatibel
    Folgen einzeln ladbar



    Download

    Geschützter Bereich - Bedanke dich beim Poster, um den Bereich sehen zu können
    Hier erfährst Du wie Du Dich bedanken kannst oder werde jetzt Premium Mitglied ab einer Spende von 5€ und erhalte sofortigen Zugriff auf den Downloadbereich!



    [Links sind nur für registrierte und aktivierte Nutzer sichtbar. Klicke hier um dich zu registrieren.]

    Ich wäre allen sehr dankbar, die mir gravierende Fehler in meinen Releases per PN melden

  2. 14 Benutzer sagen Danke:

    Asturaetus (24. September 2016),Athavar (2. August 2016),Benebastler (22. July 2016),coldbears48 (7. September 2016),Gorbatschow (8. October 2016),Hisamaki (7. August 2016),Kalchi (30. July 2016),Maskulin (22. July 2016),midnighter (30. July 2016),NLHTeddyNLH (1. November 2016),NUVAKWAHU (27. July 2016),prinzvegeta (7. August 2016),ShAd_1337 (22. July 2016),SnowCat (14. August 2016)

Stichworte

Lesezeichen

Berechtigungen

  • Neue Themen erstellen: Nein
  • Themen beantworten: Nein
  • Anhänge hochladen: Nein
  • Beiträge bearbeiten: Nein
  •  

1 2 3 4 5 6 7 8 9 10 11 12 13 14 15 16 17 18 19 20 21 22 23 24 25 26 27 28 29 30 31 32 33 34 35 36 37 38 39 40 41 42 43 44 45 46 47 48 49 50 51 52 53 54 55 56 57 58 59 60 61 62 63 64 65 66 67 68 69 70 71 72 73 74 75 76 77 78 79 80 81 82 83 84 85 86 87 88 89 90 91 92 93 94 95 96 97 98 99 100 101 102 103 104 105 106 107 108 109 110 111 112 113 114 115 116 117 118 119 120 121 122 123 124 125 126 127 128 129 130 131 132 133 134 135 136 137 138 139 140 141 142 143 144 145 146 147 148 149 150 151 152 153 154 155 156 157 158