Ergebnis 1 bis 1 von 1

Thema: Working!!! (S3) + Special [Jab-Dub][Ger-Sub][480p][WebRip] - Rii

Dieser Thread wurde noch nicht bewertet. Bewerte ihn doch, wenn er dir gefällt!
  1. #1
    Uploader Avatar von Filbo11
    Registriert seit
    Jan 2015
    Beiträge
    931
    Punkte
    17.281
    Errungenschaften:
    TomodachisErste Gruppe1 Jahr registriertCreated Album picturesTagger First Class

    Working!!! (S3) + Special [Jab-Dub][Ger-Sub][480p][WebRip] - Rii

    Working!!!
    ワーキング!!!
    Wagnaria!!3
    Working!!3
    Wagnaria!!! Season 3, Working 3
    &
    Working!!! Lord of the Takanashi
    WORKING!!!(ワーキング) 第14話「ロード・オブ・ザ・小鳥遊」
    Working!!! Episode 14




    Beschreibung

    "Irasshaimasu! Irasshaimasu!" Coffee & Restaurant Wagnaria ‒ das beliebte Familienrestaurant mit der schräg-sympathischen Belegschaft ‒ der dritte Schichtwechsel!!!

    Wie schon in den zwei Vorgängerstaffeln geht es um das tägliche Mit- und Gegeneinander der Restaurant*belegschaft. Aufgrund ihrer besonderen, oft auch absurden Charakter*züge ist ein heiterunterhaltsames Chaos natürlich vorprogrammiert...

    Format: mkv
    Dauer: ca. 24 min // Special ca. 50 min
    Größe: ca. ~ 290 MB // Special 626 MB
    Episodenanzahl: 13/13 + 1/1
    Sprache: Japanisch
    Untertitel: Deutsch
    Group: [Rii]
    Hoster: Uploaded.net & Share-Online.biz
    Passwort: anime4all


    Screenshots & MediaInfo

    Spoiler
    [Links sind nur für registrierte und aktivierte Nutzer sichtbar. Klicke hier um dich zu registrieren.]

    Code:
    General
    
    Complete name               : working.s3.e01.mkv
    Format                      : Matroska
    Format version              : Version 4 / Version 2
    File size                   : 225 MiB
    Duration                    : 23mn 36s
    Overall bit rate            : 1 331 Kbps
    Movie name                  : JapDub GerSub Webrip by Rii(tz-chan) @ *****************.to
    Encoded date                : UTC 2015-08-04 20:00:20
    Writing application         : mkvmerge v8.2.0 ('World of Adventure') 64bit
    Writing library             : libebml v1.3.1 + libmatroska v1.4.2
    
    Video
    ID                          : 1
    Format                      : AVC
    Format/Info                 : Advanced Video Codec
    Format profile              : [email protected]
    Format settings, CABAC      : Yes
    Format settings, ReFrames   : 4 frames
    Codec ID                    : V_MPEG4/ISO/AVC
    Duration                    : 23mn 36s
    Bit rate                    : 1 200 Kbps
    Nominal bit rate            : 1 589 Kbps
    Width                       : 852 pixels
    Height                      : 480 pixels
    Display aspect ratio        : 16:9
    Frame rate mode             : Constant
    Frame rate                  : 23.976 fps
    Color space                 : YUV
    Chroma subsampling          : 4:2:0
    Bit depth                   : 8 bits
    Scan type                   : Progressive
    Bits/(Pixel*Frame)          : 0.122
    Stream size                 : 203 MiB (90%)
    Writing library             : x264 core 130
    Encoding settings           : cabac=1 / ref=4 / deblock=1:0:0 / analyse=0x1:0x111 / me=umh / subme=8 / psy=1 / psy_rd=1.00:0.00 / mixed_ref=1 / me_range=16 / chroma_me=1 / trellis=1 / 8x8dct=0 / cqm=0 / deadzone=21,11 / fast_pskip=1 / chroma_qp_offset=-2 / threads=60 / lookahead_threads=3 / sliced_threads=0 / nr=0 / decimate=1 / interlaced=0 / bluray_compat=0 / constrained_intra=0 / bframes=16 / b_pyramid=2 / b_adapt=1 / b_bias=0 / direct=1 / weightb=1 / open_gop=0 / weightp=2 / keyint=119 / keyint_min=23 / scenecut=40 / intra_refresh=0 / rc_lookahead=40 / rc=2pass / mbtree=1 / bitrate=1589 / ratetol=1.0 / qcomp=0.80 / qpmin=10 / qpmax=51 / qpstep=4 / cplxblur=20.0 / qblur=0.5 / vbv_maxrate=2383 / vbv_bufsize=1589 / nal_hrd=none / ip_ratio=1.41 / aq=1:1.00
    Default                     : Yes
    Forced                      : No
    
    Audio
    ID                          : 2
    Format                      : AAC
    Format/Info                 : Advanced Audio Codec
    Format profile              : LC
    Codec ID                    : A_AAC
    Duration                    : 23mn 36s
    Bit rate                    : 128 Kbps
    Channel(s)                  : 2 channels
    Channel positions           : Front: L R
    Sampling rate               : 48.0 KHz
    Frame rate                  : 46.875 fps (1024 spf)
    Compression mode            : Lossy
    Delay relative to video     : -83ms
    Stream size                 : 21.6 MiB (10%)
    Default                     : Yes
    Forced                      : No


    Alle Mirrors untereinander kompatibel
    Folgen einzeln ladbar



    Download

    Geschützter Bereich - Bedanke dich beim Poster, um den Bereich sehen zu können
    Hier erfährst Du wie Du Dich bedanken kannst oder werde jetzt Premium Mitglied ab einer Spende von 5€ und erhalte sofortigen Zugriff auf den Downloadbereich!



    [Links sind nur für registrierte und aktivierte Nutzer sichtbar. Klicke hier um dich zu registrieren.]

    Ich wäre allen sehr dankbar, die mir gravierende Fehler in meinen Releases per PN melden

  2. 18 Benutzer sagen Danke:

    Anuy (5. July 2016),BlackPhoenix (22. October 2016),Cande (31. May 2016),chopper23 (31. May 2016),Cyberbrain85 (8. November 2016),Kalchi (28. July 2016),knuffel (29. September 2016),manuel4193 (31. May 2016),McZeRo (17. October 2016),midnighter (15. June 2016),Paraxamos (25. July 2016),prinzvegeta (31. May 2016),Scorns (26. September 2016),SnowCat (4. June 2016),SONNYxq (31. May 2016),Wölfchen (15. October 2016),Zap (18. September 2016),Zapzerap (12. June 2016)

Stichworte

Lesezeichen

Berechtigungen

  • Neue Themen erstellen: Nein
  • Themen beantworten: Nein
  • Anhänge hochladen: Nein
  • Beiträge bearbeiten: Nein
  •  

1 2 3 4 5 6 7 8 9 10 11 12 13 14 15 16 17 18 19 20 21 22 23 24 25 26 27 28 29 30 31 32 33 34 35 36 37 38 39 40 41 42 43 44 45 46 47 48 49 50 51 52 53 54 55 56 57 58 59 60 61 62 63 64 65 66 67 68 69 70 71 72 73 74 75 76 77 78 79 80 81 82 83 84 85 86 87 88 89 90 91 92 93 94 95 96 97 98 99 100 101 102 103 104 105 106 107 108 109 110 111 112 113 114 115 116 117 118 119 120 121 122 123 124 125 126 127 128 129 130 131 132 133 134 135 136 137 138 139 140 141 142 143 144 145 146 147 148 149 150 151 152 153 154 155 156 157 158