Ergebnis 1 bis 1 von 1

Thema: Asylum Session [Jap-Dub][Ger-Sub][480p][DVDRip]

Dieser Thread wurde noch nicht bewertet. Bewerte ihn doch, wenn er dir gefällt!
  1. #1
    United we Stand Avatar von 00Ryuji00
    Registriert seit
    Oct 2012
    Beiträge
    3.902
    Punkte
    100.092
    Errungenschaften:
    TomodachisGang LeaderHikikomoriTagger Amateur50000 Erfahrungspunkte

    Asylum Session [Jap-Dub][Ger-Sub][480p][DVDRip]

    Asylum Session
    アジール・セッション
    The Asylum Session






    Kurzbeschreibung:
    Die Teenagerin Hiyoko, welche von zu Hause weggelaufen ist, lebt in einer weit entfernten Zukunft, in der die Entwicklung der Zivilisation ein Ende hat. In einem Stadion, welches "Asylum" genannt wird, lebt sie mit anderen Teenagern zusammen in Zelten. Dort trifft sie auch auf Akira, den Kopf einer Bande bestehend aus Straßenkindern. Doch die Polizei hat das Ziel, das Stadion zu zerstören, woraufhin dessen Bewohner ein Event, mit dem Namen "The Asylum Session" veranstalten, um die Pläne der Polizei zu durchkreuzen.


    Sprache: Japanisch
    Untertitel: Deutsch
    Spieldauer: ~65 min.
    Format: .mp4
    Auflösung: 480p (16:9)
    Codec: x264
    Gruppe: C-Subs
    Hoster: Share-Online ; Uploaded


    Datei Info:
    Spoiler

    Code:
    
    
    Format                                   : MPEG-4
    Format profile                           : Base Media
    Codec ID                                 : isom
    File size                                : 536 MiB
    Duration                                 : 1h 5mn
    Overall bit rate mode                    : Variable
    Overall bit rate                         : 1 148 Kbps
    Encoded date                             : UTC 2012-08-28 12:09:41
    Tagged date                              : UTC 2012-08-28 12:09:41
    
    Video
    ID                                       : 1
    Format                                   : AVC
    Format/Info                              : Advanced Video Codec
    Format profile                           : [email protected]
    Format settings, CABAC                   : Yes
    Format settings, ReFrames                : 4 frames
    Codec ID                                 : avc1
    Codec ID/Info                            : Advanced Video Coding
    Duration                                 : 1h 5mn
    Source duration                          : 56s 69ms
    Bit rate                                 : 887 Kbps
    Maximum bit rate                         : 5 753 Kbps
    Width                                    : 848 pixels
    Height                                   : 480 pixels
    Display aspect ratio                     : 16:9
    Frame rate mode                          : Constant
    Frame rate                               : 23.976 fps
    Color space                              : YUV
    Chroma subsampling                       : 4:2:0
    Bit depth                                : 8 bits
    Scan type                                : Progressive
    Bits/(Pixel*Frame)                       : 0.091
    Stream size                              : 415 MiB (77%)
    Source stream size                       : 415 MiB (77%)
    Writing library                          : x264 core 125 r2200 999b753
    Encoding settings                        : cabac=1 / ref=3 / deblock=1:0:0 / analyse=0x3:0x133 / me=umh / subme=6 / psy=1 / psy_rd=1.00:0.00 / mixed_ref=1 / me_range=16 / chroma_me=1 / trellis=2 / 8x8dct=1 / cqm=0 / deadzone=21,11 / fast_pskip=1 / chroma_qp_offset=-2 / threads=12 / lookahead_threads=2 / sliced_threads=0 / nr=0 / decimate=1 / interlaced=0 / bluray_compat=0 / constrained_intra=0 / bframes=3 / b_pyramid=2 / b_adapt=1 / b_bias=0 / direct=3 / weightb=1 / open_gop=0 / weightp=2 / keyint=240 / keyint_min=23 / scenecut=40 / intra_refresh=0 / rc=crf / mbtree=0 / crf=20.0 / qcomp=0.60 / qpmin=10 / qpmax=51 / qpstep=4 / ip_ratio=1.40 / pb_ratio=1.30 / aq=0
    Encoded date                             : UTC 2012-08-28 11:50:22
    Tagged date                              : UTC 2012-08-28 12:09:46
    mdhd_Duration                            : 3921540
    
    Audio
    ID                                       : 2
    Format                                   : AAC
    Format/Info                              : Advanced Audio Codec
    Format profile                           : LC
    Codec ID                                 : 40
    Duration                                 : 1h 5mn
    Bit rate mode                            : Variable
    Bit rate                                 : 256 Kbps
    Maximum bit rate                         : 319 Kbps
    Channel count                            : 2 channels
    Channel positions                        : Front: L R
    Sampling rate                            : 48.0 KHz
    Compression mode                         : Lossy
    Stream size                              : 120 MiB (22%)
    Encoded date                             : UTC 2012-08-28 12:09:44
    Tagged date                              : UTC 2012-08-28 12:09:46
    
    





    Geschützter Bereich - Bedanke dich beim Poster, um den Bereich sehen zu können
    Hier erfährst Du wie Du Dich bedanken kannst oder werde jetzt Premium Mitglied ab einer Spende von 5€ und erhalte sofortigen Zugriff auf den Downloadbereich!

    Geändert von 00Ryuji00 (3. May 2016 um 15:11 Uhr)
    !!!Alle Anliegen bezüglich Uploads werden nur mit direktem Threadlink zum Angebot bearbeitet!!!

    Re-Uploadanfragen nur per PN - Ihr könnt mir auch Listen schicken

    Re-Uploads folgen nach Anfrage meist am Wochenende

    [Links sind nur für registrierte und aktivierte Nutzer sichtbar. Klicke hier um dich zu registrieren.] | [Links sind nur für registrierte und aktivierte Nutzer sichtbar. Klicke hier um dich zu registrieren.] | >[Links sind nur für registrierte und aktivierte Nutzer sichtbar. Klicke hier um dich zu registrieren.]<
    [Links sind nur für registrierte und aktivierte Nutzer sichtbar. Klicke hier um dich zu registrieren.]

  2. 6 Benutzer sagen Danke:

    Akio (20. February 2016),alecander (6. August 2015),Atmozfear (16. August 2015),haltdiefresse (5. January 2016),midnighter (4. August 2015),Riyadoris (19. August 2015)

Lesezeichen

Berechtigungen

  • Neue Themen erstellen: Nein
  • Themen beantworten: Nein
  • Anhänge hochladen: Nein
  • Beiträge bearbeiten: Nein
  •  

1 2 3 4 5 6 7 8 9 10 11 12 13 14 15 16 17 18 19 20 21 22 23 24 25 26 27 28 29 30 31 32 33 34 35 36 37 38 39 40 41 42 43 44 45 46 47 48 49 50 51 52 53 54 55 56 57 58 59 60 61 62 63 64 65 66 67 68 69 70 71 72 73 74 75 76 77 78 79 80 81 82 83 84 85 86 87 88 89 90 91 92 93 94 95 96 97 98 99 100 101 102 103 104 105 106 107 108 109 110 111 112 113 114 115 116 117 118 119 120 121 122 123 124 125 126 127 128 129 130 131 132 133 134 135 136 137 138 139 140 141 142 143 144 145 146 147 148 149 150 151 152 153 154 155 156 157 158