Ergebnis 1 bis 4 von 4

Thema: Big Wars [JapEngDub][GerEngSub][DVDRip]

Dieser Thread wurde noch nicht bewertet. Bewerte ihn doch, wenn er dir gefällt!
  1. #1
    Erfahrener Otaku Avatar von ohlong
    Registriert seit
    Sep 2013
    Ort
    Im Herzen Deutschlands
    Beiträge
    151
    Punkte
    5.807
    Errungenschaften:
    TomodachisTagger Profi5000 ErfahrungspunkteHikikomori

    Big Wars [JapEngDub][GerEngSub][DVDRip]



    Big Wars
    Big Wars: Kami Utsu Akaki Kouya ni
    Big Wars 神撃つ朱き荒野に





    Kurzbeschreibung
    Zu Beginn des 21. Jahrhunderts entsteht ein heftiger Krieg
    auf dem Mars. Kapitän Akuh ist mit seiner Flotte auf einer streng geheimen
    Mission unterwegs. Sie müssen einen Kriegsschiff zerstören, doch davor
    müssen sie aus diesem Kriegsschiff einen infizierten Offizier befreien. Eine
    Seuche überfällt die Erde. Akuh muss seine Mission erfolgreich beenden.
    Er ist der Mensch, der das Schicksal der Menschheit in den Händen hält.
    Wird Akuh diese große Tat vollbringen?

    Sprache: Japanisch, Englisch (OGG)
    Untertitel: Deutsch, Englisch (ASS/SRT)
    Genre: Action, Krieg, Sci-Fi
    Source: DVD
    Format: mkv
    Video-Codec: x264
    Resolution: 640x352
    Größe: 680MB
    Releaser: Rip, MeisterMutaito
    Hoster: Share-Online, Uploaded


    Technische Informationen
    Spoiler
    Code:
    Format                                   : Matroska
    Format version                           : Version 2
    File size                                : 680 MiB
    Duration                                 : 1h 11mn
    Overall bit rate mode                    : Variable
    Overall bit rate                         : 1 339 Kbps
    Movie name                               : Big Wars by [RiP] [MeisterMutaito]
    Encoded date                             : UTC 2011-09-27 17:57:28
    Writing application                      : mkvmerge v5.0.0 ('Die Wahre Liebe') built on Sep 25 2011 20:33:49
    Writing library                          : libebml v1.2.2 + libmatroska v1.3.0
    Attachment                               : Yes / Yes / Yes
    
    Video
    ID                                       : 1
    Format                                   : AVC
    Format/Info                              : Advanced Video Codec
    Format profile                           : [email protected]
    Format settings, CABAC                   : Yes
    Format settings, ReFrames                : 6 frames
    Muxing mode                              : Header stripping
    Codec ID                                 : V_MPEG4/ISO/AVC
    Duration                                 : 1h 11mn
    Bit rate                                 : 1 057 Kbps
    Width                                    : 640 pixels
    Height                                   : 352 pixels
    Display aspect ratio                     : 16:9
    Frame rate                               : 23.976 fps
    Original frame rate                      : 11.988 fps
    Color space                              : YUV
    Chroma subsampling                       : 4:2:0
    Bit depth                                : 8 bits
    Scan type                                : Progressive
    Bits/(Pixel*Frame)                       : 0.196
    Stream size                              : 537 MiB (79%)
    Title                                    : Big Wars by [RiP] [MeisterMutaito]
    Writing library                          : x264 core 33 svn-275
    Language                                 : Japanese
    Default                                  : Yes
    Forced                                   : No
    
    Audio #1
    ID                                       : 2
    Format                                   : Vorbis
    Format settings, Floor                   : 1
    Codec ID                                 : A_VORBIS
    Duration                                 : 1h 11mn
    Bit rate mode                            : Variable
    Bit rate                                 : 128 Kbps
    Channel(s)                               : 2 channels
    Sampling rate                            : 48.0 KHz
    Compression mode                         : Lossy
    Stream size                              : 65.0 MiB (10%)
    Title                                    : Japanese
    Writing library                          : libVorbis 1.0 (UTC 2002-07-17)
    Language                                 : Japanese
    Default                                  : Yes
    Forced                                   : No
    Writing application                      : Made with BeSweet v1.5b30
    
    Audio #2
    ID                                       : 3
    Format                                   : Vorbis
    Format settings, Floor                   : 1
    Codec ID                                 : A_VORBIS
    Duration                                 : 1h 11mn
    Bit rate mode                            : Variable
    Bit rate                                 : 128 Kbps
    Channel(s)                               : 2 channels
    Sampling rate                            : 48.0 KHz
    Compression mode                         : Lossy
    Stream size                              : 65.0 MiB (10%)
    Title                                    : English
    Writing library                          : libVorbis 1.0 (UTC 2002-07-17)
    Language                                 : English
    Default                                  : No
    Forced                                   : No
    Writing application                      : Made with BeSweet v1.5b30
    
    Text #1
    ID                                       : 4
    Format                                   : ASS
    Codec ID                                 : S_TEXT/ASS
    Codec ID/Info                            : Advanced Sub Station Alpha
    Compression mode                         : Lossless
    Title                                    : German [ASS]
    Language                                 : German
    Default                                  : Yes
    Forced                                   : No
    
    Text #2
    ID                                       : 5
    Format                                   : UTF-8
    Codec ID                                 : S_TEXT/UTF8
    Codec ID/Info                            : UTF-8 Plain Text
    Title                                    : German [SRT]
    Language                                 : German
    Default                                  : No
    Forced                                   : No
    
    Text #3
    ID                                       : 6
    Format                                   : UTF-8
    Codec ID                                 : S_TEXT/UTF8
    Codec ID/Info                            : UTF-8 Plain Text
    Title                                    : English [SRT]
    Language                                 : English
    Default                                  : No
    Forced                                   : No


    Geschützter Bereich - Bedanke dich beim Poster, um den Bereich sehen zu können
    Hier erfährst Du wie Du Dich bedanken kannst oder werde jetzt Premium Mitglied ab einer Spende von 5€ und erhalte sofortigen Zugriff auf den Downloadbereich!

    Geändert von 00Ryuji00 (3. May 2016 um 15:07 Uhr)

  2. 24 Benutzer sagen Danke:

    23muki (10. May 2014),4myAss (1. February 2015),acer25 (13. April 2014),Akio (10. December 2015),amzal (24. June 2016),badx (5. August 2015),bloodyfloh (29. December 2014),boemb80_inactive (11. April 2014),Daran2010 (2. January 2015),Dexter121 (19. April 2015),DoctorDorian (10. January 2015),Gatti1983 (12. March 2015),Hollow-Ichigo (28. April 2016),Ignasum (31. August 2015),JoleenLovesMina (14. April 2014),Kilik4 (8. April 2014),midnighter (24. January 2015),Mörps (6. January 2015),prinzvegeta (1. January 2016),SmokingTea (9. January 2015),sunfun16 (29. August 2014),sword (8. September 2015),Wolfcore (23. September 2015),XRA9 (13. April 2014)

  3. #2
    Erfahrener Otaku Avatar von ohlong
    Registriert seit
    Sep 2013
    Ort
    Im Herzen Deutschlands
    Beiträge
    151
    Punkte
    5.807
    Errungenschaften:
    TomodachisTagger Profi5000 ErfahrungspunkteHikikomori

    AW: Big Wars [JapEngDub][GerEngSub][DVDRip]

    Reup auf Wunsch, auf Share-Online und Uploaded.

  4. #3
    Erfahrener Otaku Avatar von ohlong
    Registriert seit
    Sep 2013
    Ort
    Im Herzen Deutschlands
    Beiträge
    151
    Punkte
    5.807
    Errungenschaften:
    TomodachisTagger Profi5000 ErfahrungspunkteHikikomori

    AW: Big Wars [JapEngDub][GerEngSub][DVDRip]

    Reup auf Share-Online & Uploaded

  5. #4
    Erfahrener Otaku Avatar von ohlong
    Registriert seit
    Sep 2013
    Ort
    Im Herzen Deutschlands
    Beiträge
    151
    Punkte
    5.807
    Errungenschaften:
    TomodachisTagger Profi5000 ErfahrungspunkteHikikomori

    AW: Big Wars [JapEngDub][GerEngSub][DVDRip]

    Reup auf Share-Online & Uploaded

Lesezeichen

Berechtigungen

  • Neue Themen erstellen: Nein
  • Themen beantworten: Nein
  • Anhänge hochladen: Nein
  • Beiträge bearbeiten: Nein
  •  

1 2 3 4 5 6 7 8 9 10 11 12 13 14 15 16 17 18 19 20 21 22 23 24 25 26 27 28 29 30 31 32 33 34 35 36 37 38 39 40 41 42 43 44 45 46 47 48 49 50 51 52 53 54 55 56 57 58 59 60 61 62 63 64 65 66 67 68 69 70 71 72 73 74 75 76 77 78 79 80 81 82 83 84 85 86 87 88 89 90 91 92 93 94 95 96 97 98 99 100 101 102 103 104 105 106 107 108 109 110 111 112 113 114 115 116 117 118 119 120 121 122 123 124 125 126 127 128 129 130 131 132 133 134 135 136 137 138 139 140 141 142 143 144 145 146 147 148 149 150 151 152 153 154 155 156 157 158