Ergebnis 1 bis 1 von 1

Thema: Black Magic M-66 [Jap-Dub][Ger-Sub][480p-10Bit][DVDRip]-HRS

Dieser Thread wurde noch nicht bewertet. Bewerte ihn doch, wenn er dir gefällt!
  1. #1
    United we Stand Avatar von 00Ryuji00
    Registriert seit
    Oct 2012
    Beiträge
    3.902
    Punkte
    99.938
    Errungenschaften:
    TomodachisGang LeaderHikikomoriTagger Amateur50000 Erfahrungspunkte

    Black Magic M-66 [Jap-Dub][Ger-Sub][480p-10Bit][DVDRip]-HRS


    Black Magic M-66
    ブラックマジックM(マリオ)-66
    Black Magic M66






    Kurzbeschreibung:
    Zitat Zitat von AniSearch.com
    Diese Ova erzählt die Abenteuer von Sybel, einer freiberuflichen Videojournalistin. Als zwei geheime Militärandroiden bei einem Unfall verlorengehen, wird Sybel in ein gefährliches, militärisches Debakel hineingezogen. Eine der tödlichen M-66 Einheiten ist entkommen und darauf programmiert, Ferris, die Enkeltochter ihres Schöpfers, zu töten. Sybel bleibt kaum noch Zeit, um die erbarmungslose Killermaschine aufzuhalten und Ferris Leben zu retten.


    Spieldauer: 48min
    Genre: Action
    Nebengenres: Action, Komödie, Mecha, Männlich, Sci-Fi, Übermäßige Gewaltdarstellung
    Jahr: 1987
    Sprache: Japanisch
    Untertitel: Deutsch
    Größe pro Folge: ~630 MiB
    Episodenanzahl: 1/1
    Format: MKV
    Auflösung: 480p (4:3)
    Videocodec: x264 (AVC)
    Audiocodec: AC-3
    Releasegruppe: HRS
    Hoster: Share-Online, Uploaded


    MediaInfo
    Code:
    
    Format                                   : Matroska
    Format version                           : Version 4 / Version 2
    File size                                : 630 MiB
    Duration                                 : 47mn 15s
    Overall bit rate                         : 1 863 Kbps
    Encoded date                             : UTC 2014-07-14 21:04:57
    Writing application                      : mkvmerge v7.0.0 ('Where We Going') 64bit built on Jun  9 2014 15:16:27
    Writing library                          : libebml v1.3.0 + libmatroska v1.4.1
    Attachements                             : Erasdemi.TTF / ANTQUABI.TTF / ANTQUAB.TTF / arialbd.ttf
    DURATION                                 : 00:46:33.260000000
    NUMBER_OF_FRAMES                         : 486
    NUMBER_OF_BYTES                          : 32758
    _STATISTICS_WRITING_APP                  : mkvmerge v7.0.0 ('Where We Going') 64bit built on Jun  9 2014 15:16:27
    _STATISTICS_WRITING_DATE_UTC             : 2014-07-14 21:04:57
    _STATISTICS_TAGS                         : BPS DURATION NUMBER_OF_FRAMES NUMBER_OF_BYTES
    
    Video
    ID                                       : 1
    Format                                   : AVC
    Format/Info                              : Advanced Video Codec
    Format profile                           : High [email protected]
    Format settings, CABAC                   : Yes
    Format settings, ReFrames                : 15 frames
    Codec ID                                 : V_MPEG4/ISO/AVC
    Duration                                 : 47mn 15s
    Bit rate                                 : 1 378 Kbps
    Width                                    : 696 pixels
    Height                                   : 480 pixels
    Display aspect ratio                     : 4:3
    Original display aspect ratio            : 3:2
    Frame rate mode                          : Constant
    Frame rate                               : 23.976 fps
    Color space                              : YUV
    Chroma subsampling                       : 4:2:0
    Bit depth                                : 10 bits
    Scan type                                : Progressive
    Bits/(Pixel*Frame)                       : 0.172
    Stream size                              : 466 MiB (74%)
    Writing library                          : x264 core 128 r2216kMod 198a7ea
    Encoding settings                        : cabac=1 / ref=15 / deblock=1:0:0 / analyse=0x3:0x133 / me=umh / subme=10 / psy=1 / fade_compensate=0.00 / psy_rd=1.00:0.00 / mixed_ref=1 / me_range=24 / chroma_me=1 / trellis=2 / 8x8dct=1 / cqm=0 / deadzone=21,11 / fast_pskip=0 / chroma_qp_offset=-2 / threads=12 / lookahead_threads=2 / sliced_threads=0 / nr=0 / decimate=0 / interlaced=0 / bluray_compat=0 / constrained_intra=0 / bframes=8 / b_pyramid=2 / b_adapt=2 / b_bias=0 / direct=1 / weightb=1 / open_gop=0 / weightp=2 / keyint=250 / keyint_min=1 / scenecut=80 / intra_refresh=0 / rc_lookahead=60 / rc=crf / mbtree=1 / crf=18.0000 / qcomp=0.60 / qpmin=0 / qpmax=81 / qpstep=4 / ip_ratio=1.40 / aq=1:1.00
    Language                                 : Japanese
    Default                                  : Yes
    Forced                                   : No
    Color range                              : Limited
    Matrix coefficients                      : BT.601
    DURATION                                 : 00:47:15.291000000
    NUMBER_OF_FRAMES                         : 67979
    NUMBER_OF_BYTES                          : 499625302
    _STATISTICS_WRITING_APP                  : mkvmerge v7.0.0 ('Where We Going') 64bit built on Jun  9 2014 15:16:27
    _STATISTICS_WRITING_DATE_UTC             : 2014-07-14 21:04:57
    _STATISTICS_TAGS                         : BPS DURATION NUMBER_OF_FRAMES NUMBER_OF_BYTES
    
    Audio
    ID                                       : 2
    Format                                   : AC-3
    Format/Info                              : Audio Coding 3
    Mode extension                           : CM (complete main)
    Format settings, Endianness              : Big
    Codec ID                                 : A_AC3
    Duration                                 : 47mn 15s
    Bit rate mode                            : Constant
    Bit rate                                 : 448 Kbps
    Channel(s)                               : 2 channels
    Channel positions                        : Front: L R
    Sampling rate                            : 48.0 KHz
    Compression mode                         : Lossy
    Stream size                              : 151 MiB (24%)
    Title                                    : AC3 2.0 Stereo houshi-roshi-subs
    Language                                 : Japanese
    Default                                  : Yes
    Forced                                   : No
    
    Text
    ID                                       : 3
    Format                                   : ASS
    Codec ID                                 : S_TEXT/ASS
    Codec ID/Info                            : Advanced Sub Station Alpha
    Compression mode                         : Lossless
    Title                                    : houshi-roshi-subs
    Language                                 : German
    Default                                  : Yes
    Forced                                   : No
    
    Menu
    00:00:00.000                             : en:Prologue - ja:序章
    00:01:16.535                             : en:Activation - ja:始動
    00:03:11.817                             : en:Deployment - ja:出動
    00:09:00.874                             : en:The Specialist - ja:博士
    00:12:46.474                             : en:It Appears! - ja:出現
    00:14:23.613                             : en:Diversion - ja:陽動
    00:23:46.967                             : en:The Target - ja:目標
    00:25:52.217                             : :Operation - ja:作戦
    00:28:22.409                             : en:Searching - ja:発見
    00:30:44.509                             : en:Rescue - ja:救援
    00:33:16.745                             : en:Overheating - ja:過熱
    00:34:46.334                             : en:Showdown - ja:対決
    00:40:43.650                             : en:Deliverance - ja:救出
    00:42:16.409                             : en:Withdrawal - ja:回収
    00:43:16.010                             : en:Aftermath - ja:回想
    00:45:03.367                             : en:'FINALLY'
    
    





    Geschützter Bereich - Bedanke dich beim Poster, um den Bereich sehen zu können
    Hier erfährst Du wie Du Dich bedanken kannst oder werde jetzt Premium Mitglied ab einer Spende von 5€ und erhalte sofortigen Zugriff auf den Downloadbereich!


    [Links sind nur für registrierte und aktivierte Nutzer sichtbar. Klicke hier um dich zu registrieren.]
    Geändert von 00Ryuji00 (3. May 2016 um 15:04 Uhr)
    !!!Alle Anliegen bezüglich Uploads werden nur mit direktem Threadlink zum Angebot bearbeitet!!!

    Re-Uploadanfragen nur per PN - Ihr könnt mir auch Listen schicken

    Re-Uploads erfolgen meist innerhalb 24h, kann aber auch bis zu 7 Tage dauern

    [Links sind nur für registrierte und aktivierte Nutzer sichtbar. Klicke hier um dich zu registrieren.] | [Links sind nur für registrierte und aktivierte Nutzer sichtbar. Klicke hier um dich zu registrieren.] | >[Links sind nur für registrierte und aktivierte Nutzer sichtbar. Klicke hier um dich zu registrieren.]<
    [Links sind nur für registrierte und aktivierte Nutzer sichtbar. Klicke hier um dich zu registrieren.]

  2. 7 Benutzer sagen Danke:

    Antipott (6. March 2016),Ignasum (22. January 2016),KeyEX99 (29. February 2016),midnighter (27. January 2016),prinzvegeta (31. December 2015),Seidou (18. December 2015),Tenma90 (31. January 2016)

Lesezeichen

Berechtigungen

  • Neue Themen erstellen: Nein
  • Themen beantworten: Nein
  • Anhänge hochladen: Nein
  • Beiträge bearbeiten: Nein
  •  

1 2 3 4 5 6 7 8 9 10 11 12 13 14 15 16 17 18 19 20 21 22 23 24 25 26 27 28 29 30 31 32 33 34 35 36 37 38 39 40 41 42 43 44 45 46 47 48 49 50 51 52 53 54 55 56 57 58 59 60 61 62 63 64 65 66 67 68 69 70 71 72 73 74 75 76 77 78 79 80 81 82 83 84 85 86 87 88 89 90 91 92 93 94 95 96 97 98 99 100 101 102 103 104 105 106 107 108 109 110 111 112 113 114 115 116 117 118 119 120 121 122 123 124 125 126 127 128 129 130 131 132 133 134 135 136 137 138 139 140 141 142 143 144 145 146 147 148 149 150 151 152 153 154 155 156 157 158