Ergebnis 1 bis 2 von 2

Thema: Bleach Movie 3 + 4 [Jap-Dub][Ger-Sub][DVDRip]

Dieser Thread wurde noch nicht bewertet. Bewerte ihn doch, wenn er dir gefällt!
  1. #1
    Elite Avatar von Zetsu
    Registriert seit
    May 2013
    Beiträge
    685
    Punkte
    69.455
    Errungenschaften:
    TomodachisKapitänTagger Profi50000 ErfahrungspunkteHikikomori

    Bleach Movie 3 + 4 [Jap-Dub][Ger-Sub][DVDRip]



    Gekijouban Bleach: Fade to Black Kimi no Na o Yobu
    劇場版 BLEACH Fade to Black 君の名を呼ぶ
    Bleach Movie 3, Bleach - Goodbye, Rukia, Bleach: Fade to Black - Kimi no Na o Yobu, Bleach Movie : Fade to Black - Call out your Name

    Gekijouban Bleach: Jigoku-hen
    劇場版 Bleach 地獄篇
    Bleach The Movie 4: Hell Verse






    Kurzbeschreibung
    Eine mysteriöse Reiatsu (spirituelle Partikel) Explosion findet in Seireitei in der Soul Society statt, welche verursacht, dass Seireitei zerstört wird. In der exakt selben Zeit überkommt Kuchiki Rukia eine bedeutende Veränderung, die bewirkt, dass sie aus dem Gedächtnis ihrer Freunde langsam aber sicher verschwindet. Urahara Kisuke schickt Kurosaki Ichigo zur Soul Society, um die Unruhe zu untersuchen. Als er die Soul Society erreicht, wird er von Shinigamis angegriffen, die ihre Erinnerungen zu Ichigo und Rukia verloren haben. Nun, alleine und auf der Flucht, muss Ichigo versuchen die vermisste Rukia zu finden und die mysteriösen Ereignisse aufzudecken, bevor es zu spät ist.

    Nachdem in Karakura ein Höllentor aufgetaucht ist, werden Rukia Kuchiki und Renji Abarai dorthin entsandt, um die Lage zu untersuchen. Angeführt von Shuren haben die Togabito, Geister bzw. Hollows, die während ihres menschlichen Daseins ein sündhaftes und böses Leben führten und zur Strafe in die Hölle verbannt wurden, es auf Ichigos Familie abgesehen und sie entführen seine jüngere Schwester Yuzu. Fast hätten sie es geschafft auch Karin zu entführen, wenn nicht der Togabito Kokutou sie davor bewahrt hätte. Kokutou überzeugt daraufhin Ichigo und die Shinigami ihn in die Hölle zu begleiten, um Yuzu zu retten...

    ✰ Spieldauer pro Folge: 94 Min. ✰
    ✰ Format: mkv ✰
    ✰ Source: DVD ✰
    ✰ Video-Codec: x264 ✰
    ✰ Resolution: 848 x 480 ✰
    ✰ Sprache: Japanisch ✰
    ✰ Untertitel: Deutsch ✰
    ✰ Größe pro Film: 1100MB ✰
    ✰ Releaser: Strawhat ✰
    ✰ Hoster: Share-Online Uploaded ✰


    Details
    Spoiler

    Movie 3
    Spoiler

    PHP-Code:
    General           : [Strawhat]_Bleach_-_Fade_to_Black_[h264][034EF58D]
    Format            Matroska at 1 624 Kbps
    Length            
    1,07 GiB for 1h 34min 28s 736ms

    Video 
    #0          : h264
    Format            AVC 8 bits
    Aspect            
    848 x 480 (1.767at 23.976 fps
    Streamsize        


    Audio #0          : 5.1 AAC
    Format            AAC
    Infos             
    6 Kanäle48,0 KHz 24,0 KHz
    Language          
    Japanisch
    Streamsize        

    Movie 4
    Spoiler

    PHP-Code:
    General           : [Strawhat]_Bleach_-_Das_Hoellenkapitel_[H264_10][8B85A51C]
    Format            Matroska at 1 658 Kbps
    Length            
    1,09 GiB for 1h 33min 56s 631ms

    Video 
    #0          : Bleach - Das Hoellenkapitel
    Format            AVC 10 bits at 1 177 Kbps
    Aspect            
    848 x 480 (1.767at 23.976 fps
    Streamsize        
    791 MiB (71%)

    Audio #0          : Bleach - Das Hoellenkapitel
    Format            AC-3 at 448 Kbps
    Infos             
    6 Kanäle48,0 KHz
    Language          
    Japanisch
    Streamsize        
    301 MiB (27%)

    Text #0           : [Strawhat] Bleach - Das Hoellenkapitel
    Format            ASS
    Language          
    Deutsch 




    DOWNLOAD
    Geschützter Bereich - Bedanke dich beim Poster, um den Bereich sehen zu können
    Hier erfährst Du wie Du Dich bedanken kannst oder werde jetzt Premium Mitglied ab einer Spende von 5€ und erhalte sofortigen Zugriff auf den Downloadbereich!

    Geändert von 00Ryuji00 (29. April 2016 um 22:25 Uhr)
    Inaktiver Uploader!

    Alle Re-Upload-Anfragen öffentlich im [Links sind nur für registrierte und aktivierte Nutzer sichtbar. Klicke hier um dich zu registrieren.] posten!

  2. 101 Benutzer sagen Danke:

    Anzeigen

    ■DarknessIM■ (8. May 2015),4myAss (31. October 2014),Akio (11. August 2015),Alucard1412 (7. February 2016),Amedala (27. April 2014),ANg3el (16. November 2016),animeathome (14. December 2014),Annomaster (10. November 2014),Antraxay (28. October 2013),Aracty (23. August 2014),Asuka Langley (31. March 2015),badx (5. August 2015),Bela22_inactive (17. February 2015),BigBen (10. November 2014),BK-201 (1. January 2016),Bloodyair (23. April 2014),boemb80_inactive (11. April 2014),Cande (8. August 2015),chewbacka (7. January 2015),DaaFloH (9. April 2014),Darceus_inactive (14. July 2015),Darkness_inactive (23. February 2015),DarkTerminator (3. October 2016),darkwarrior (19. June 2014),Deflamera (10. February 2014),Demichi (29. May 2014),DjRayleigh (14. January 2016),DomStrike (2. April 2016),duscha2925 (26. February 2015),Dylan (21. January 2015),f1r3n_inactive (7. September 2014),fabilord98 (18. April 2014),Fairytales (10. August 2014),fiala_inactive (14. February 2015),Flint (25. March 2014),Fox Faram (14. April 2015),Furorian (23. September 2014),galudo (14. January 2016),Gebbi (22. March 2015),Geisterhaendler (21. March 2014),Gorshi (2. January 2014),HellSPawn91 (5. March 2014),herrwefer (2. January 2016),Hinamori309 (13. March 2016),Hiruja (10. October 2016),Holyy (1. April 2014),Hyrikan (12. March 2015),Invisible (29. November 2014),JackyMono (14. July 2015),JugoBetrugo (17. December 2015),kenschi (8. May 2015),Kodama1989 (27. August 2015),Kojomi (4. August 2016),kuttyfram (11. February 2015),lair1995 (29. January 2015),Lyres (29. January 2015),mak51 (30. March 2014),Max13493 (15. February 2016),McZeRo (16. March 2015),Megamani (23. November 2015),meyno (29. July 2014),midnighter (18. February 2015),Miiko_Chan (1. February 2015),minimalistix (2. November 2013),Mizuki (26. October 2013),Mr.Shit (8. April 2015),msemi99 (1. December 2015),Nickshahin (13. November 2013),Ninelpienel (22. January 2014),preslaey (29. November 2015),R4ven (6. September 2014),realmadridcf (26. June 2016),riku14466 (21. June 2014),rinnegan93 (11. November 2016),RisingJack (19. April 2014),Robin88 (23. November 2013),Ryukk (3. July 2014),S1M0N93 (18. January 2014),ScaMir (12. September 2014),schubway (5. February 2016),Shinu Luna (26. November 2015),shokinn (18. February 2016),Skinsuite (8. March 2015),SmokingTea (23. July 2014),ssj3shad (29. April 2014),StaZ~ (27. October 2013),Suigetsu (12. October 2014),Sukor924 (14. October 2014),SyyNd_inactive (7. December 2014),Tai1988 (4. December 2013),the_Metalhead_inactive (18. July 2014),Tibscha (4. March 2014),TrM (16. November 2013),Tweak_inactive (11. January 2015),UndeadBan (3. February 2016),Victor2901 (22. January 2015),videoseven (17. January 2015),Vivere (5. April 2015),wire1257 (6. January 2015),Yenniii (17. December 2013)

  3. #2
    Erfahrener Otaku Avatar von DjRayleigh
    Registriert seit
    Jul 2015
    Beiträge
    195
    Punkte
    2.962
    Errungenschaften:
    1000 ErfahrungspunkteHyperaktivErste GruppeTomodachisSenpai

    AW: Bleach Movie 3 + 4 [Jap-Dub][Ger-Sub][DVDRip]


    Gekijouban Bleach: Fade to Black Kimi no Na o Yobu
    劇場版 BLEACH Fade to Black 君の名を呼ぶ
    Bleach Movie 3, Bleach - Goodbye, Rukia, Bleach: Fade to Black - Kimi no Na o Yobu, Bleach Movie : Fade to Black - Call out your Name







    Kurzbeschreibung:
    Zitat Zitat von AniSearch.com
    Eine mysteriöse Reiatsu (spirituelle Partikel) Explosion findet in Seireitei in der Soul Society statt, welche verursacht, dass Seireitei zerstört wird. In der exakt selben Zeit überkommt Kuchiki Rukia eine bedeutende Veränderung, die bewirkt, dass sie aus dem Gedächtnis ihrer Freunde langsam aber sicher verschwindet. Urahara Kisuke schickt Kurosaki Ichigo zur Soul Society, um die Unruhe zu untersuchen. Als er die Soul Society erreicht, wird er von Shinigamis angegriffen, die ihre Erinnerungen zu Ichigo und Rukia verloren haben. Nun, alleine und auf der Flucht, muss Ichigo versuchen die vermisste Rukia zu finden und die mysteriösen Ereignisse aufzudecken, bevor es zu spät ist.


    Spieldauer: 95min
    Genre: Fighting-Shounen
    Nebengenres: Abenteuer, Action, Fighting-Shounen
    Jahr: 2008
    Sprache: Japanisch
    Untertitel: Deutsch
    Größe des Films: ~700 MiB 396p (16:9)
    Größe des Films: ~1.07 GiB 480p (16:9)
    Episodenanzahl: 1 /1
    Format: avi,MKV
    Auflösung: 396p (16:9)
    Auflösung: 480p (16:9)
    Videocodec: xvid,x264 (AVC)
    Audiocodec: AAC
    Releasegruppe: strawhat
    Hoster: Uploaded, Share-Online

    MediaInfo

    396p (16:9)
    Code:
    
    Format                                   : AVI
    Format/Info                              : Audio Video Interleave
    File size                                : 700 MiB
    Duration                                 : 1h 34mn
    Overall bit rate                         : 1 040 Kbps
    Writing library                          : VirtualDub build 30091/release
    
    Video
    ID                                       : 0
    Format                                   : MPEG-4 Visual
    Format profile                           : Advanced [email protected]
    Format settings, BVOP                    : 2
    Format settings, QPel                    : No
    Format settings, GMC                     : No warppoints
    Format settings, Matrix                  : Default (H.263)
    Codec ID                                 : XVID
    Codec ID/Hint                            : XviD
    Duration                                 : 1h 34mn
    Bit rate                                 : 902 Kbps
    Width                                    : 704 pixels
    Height                                   : 396 pixels
    Display aspect ratio                     : 16:9
    Frame rate                               : 23.976 fps
    Color space                              : YUV
    Chroma subsampling                       : 4:2:0
    Bit depth                                : 8 bits
    Scan type                                : Progressive
    Compression mode                         : Lossy
    Bits/(Pixel*Frame)                       : 0.135
    Stream size                              : 608 MiB (87%)
    Writing library                          : XviD 1.2.1 (UTC 2008-12-04)
    
    Audio
    ID                                       : 1
    Format                                   : MPEG Audio
    Format version                           : Version 1
    Format profile                           : Layer 3
    Mode                                     : Joint stereo
    Codec ID                                 : 55
    Codec ID/Hint                            : MP3
    Duration                                 : 1h 34mn
    Bit rate mode                            : Constant
    Bit rate                                 : 128 Kbps
    Channel(s)                               : 2 channels
    Sampling rate                            : 48.0 KHz
    Compression mode                         : Lossy
    Stream size                              : 86.2 MiB (12%)
    Alignment                                : Split accross interleaves
    Interleave, duration                     : 42 ms (1.00 video frame)
    Interleave, preload duration             : 500 ms
    Writing library                          : LAME3.97 
    Encoding settings                        : -m j -V 4 -q 2 -lowpass 17 -b 128
    
    


    480p (16:9)
    Code:
    
    Format                                   : Matroska
    Format version                           : Version 2
    File size                                : 1.07 GiB
    Duration                                 : 1h 34mn
    Overall bit rate                         : 1 624 Kbps
    Encoded date                             : UTC 2009-10-16 13:34:12
    Writing application                      : mkvmerge v2.9.7 ('Tenderness') built on Jul  1 2009 18:43:35
    Writing library                          : libebml v0.7.7 + libmatroska v0.8.1
    
    Video
    ID                                       : 1
    Format                                   : AVC
    Format/Info                              : Advanced Video Codec
    Format profile                           : [email protected]
    Format settings, CABAC                   : Yes
    Format settings, ReFrames                : 16 frames
    Codec ID                                 : V_MPEG4/ISO/AVC
    Duration                                 : 1h 34mn
    Nominal bit rate                         : 1 392 Kbps
    Width                                    : 848 pixels
    Height                                   : 480 pixels
    Display aspect ratio                     : 16:9
    Frame rate mode                          : Constant
    Frame rate                               : 23.976 fps
    Color space                              : YUV
    Chroma subsampling                       : 4:2:0
    Bit depth                                : 8 bits
    Scan type                                : Progressive
    Bits/(Pixel*Frame)                       : 0.143
    Title                                    : h264
    Writing library                          : x264 core 77 r1292 e381f6d
    Encoding settings                        : cabac=1 / ref=16 / deblock=1:-2:-2 / analyse=0x3:0x133 / me=umh / subme=10 / psy=1 / psy_rd=0.9:0.3 / mixed_ref=1 / me_range=20 / chroma_me=1 / trellis=2 / 8x8dct=1 / cqm=0 / deadzone=21,11 / chroma_qp_offset=-4 / threads=6 / nr=0 / decimate=0 / mbaff=0 / constrained_intra=0 / bframes=7 / b_pyramid=0 / b_adapt=2 / b_bias=0 / direct=3 / wpredb=1 / keyint=240 / keyint_min=25 / scenecut=40 / rc_lookahead=40 / rc=2pass / mbtree=1 / bitrate=1392 / ratetol=1.0 / qcomp=0.60 / qpmin=10 / qpmax=51 / qpstep=4 / cplxblur=20.0 / qblur=0.5 / ip_ratio=1.40 / aq=1:0.87
    Language                                 : German
    Default                                  : Yes
    Forced                                   : No
    
    Audio
    ID                                       : 2
    Format                                   : AAC
    Format/Info                              : Advanced Audio Codec
    Format profile                           : HE-AACv2 / HE-AAC / LC
    Codec ID                                 : A_AAC
    Duration                                 : 1h 34mn
    Channel(s)                               : 6 channels
    Channel(s)_Original                      : 2 channels / 23 channels / 23 channels
    Channel positions                        : Front: L R / Front: 5, Side: 12, Back: 6 / Front: 5, Side: 12, Back: 6
    Sampling rate                            : 48.0 KHz / 48.0 KHz / 24.0 KHz
    Compression mode                         : Lossy
    Title                                    : 5.1 AAC
    Language                                 : Japanese
    Default                                  : Yes
    Forced                                   : No
    
    






    Geschützter Bereich - Bedanke dich beim Poster, um den Bereich sehen zu können
    Hier erfährst Du wie Du Dich bedanken kannst oder werde jetzt Premium Mitglied ab einer Spende von 5€ und erhalte sofortigen Zugriff auf den Downloadbereich!



    Gekijouban Bleach: Jigoku-hen
    劇場版 Bleach 地獄篇
    Bleach The Movie 4: Hell Verse






    Kurzbeschreibung:
    Zitat Zitat von AniSearch.com
    Nachdem in Karakura ein Höllentor aufgetaucht ist, werden Rukia Kuchiki und Renji Abarai dorthin entsandt, um die Lage zu untersuchen. Angeführt von Shuren haben die Togabito, Geister bzw. Hollows, die während ihres menschlichen Daseins ein sündhaftes und böses Leben führten und zur Strafe in die Hölle verbannt wurden, es auf Ichigos Familie abgesehen und sie entführen seine jüngere Schwester Yuzu. Fast hätten sie es geschafft auch Karin zu entführen, wenn nicht der Togabito Kokutou sie davor bewahrt hätte. Kokutou überzeugt daraufhin Ichigo und die Shinigami ihn in die Hölle zu begleiten, um Yuzu zu retten...


    Spieldauer: 94min
    Genre: Fighting-Shounen
    Nebengenres: Fighting-Shounen
    Jahr: 2010
    Sprache: Japanisch
    Untertitel: Deutsch
    Größe pro Folge: ~1.09 GiB
    Episodenanzahl: 1 /1
    Format: MKV
    Auflösung: 480p (16:9)
    Videocodec: x264 (AVC)
    Audiocodec: AC-3
    Releasegruppe: Strawhat
    Hoster: Share-Online, Uploaded


    MediaInfo
    Code:
    
    Format                                   : Matroska
    Format version                           : Version 2
    File size                                : 1.09 GiB
    Duration                                 : 1h 33mn
    Overall bit rate                         : 1 658 Kbps
    Movie name                               : [Strawhat] Bleach - Das Hoellenkapitel
    Encoded date                             : UTC 2011-12-10 21:00:20
    Writing application                      : mkvmerge v5.0.1 ('Es ist Sommer') built on Oct  9 2011 11:55:43
    Writing library                          : libebml v1.2.2 + libmatroska v1.3.0
    Attachements                             : DiverdaSansCom-BlackItalic.ttf / DFKai5.ttc / Bangle, Regular.ttf / ipapminchostraw.ttf / silentiumstrawhat_regular.ttf / DejaVuSansMono.ttf / KozMinPro-ExtraLight.otf
    
    Video
    ID                                       : 1
    Format                                   : AVC
    Format/Info                              : Advanced Video Codec
    Format profile                           : High [email protected]
    Format settings, CABAC                   : Yes
    Format settings, ReFrames                : 16 frames
    Codec ID                                 : V_MPEG4/ISO/AVC
    Duration                                 : 1h 33mn
    Bit rate                                 : 1 177 Kbps
    Width                                    : 848 pixels
    Height                                   : 480 pixels
    Display aspect ratio                     : 16:9
    Frame rate mode                          : Constant
    Frame rate                               : 23.976 fps
    Color space                              : YUV
    Chroma subsampling                       : 4:2:0
    Bit depth                                : 10 bits
    Scan type                                : Progressive
    Bits/(Pixel*Frame)                       : 0.121
    Stream size                              : 791 MiB (71%)
    Title                                    : Bleach - Das Hoellenkapitel
    Writing library                          : x264 core 119 r2106 07efeb4
    Encoding settings                        : cabac=1 / ref=16 / deblock=1:0:-1 / analyse=0x3:0x133 / me=umh / subme=11 / psy=1 / psy_rd=0.60:0.40 / mixed_ref=1 / me_range=24 / chroma_me=1 / trellis=2 / 8x8dct=1 / cqm=0 / deadzone=21,11 / fast_pskip=0 / chroma_qp_offset=-4 / threads=6 / sliced_threads=0 / nr=0 / decimate=1 / interlaced=0 / bluray_compat=0 / constrained_intra=0 / bframes=16 / b_pyramid=2 / b_adapt=2 / b_bias=0 / direct=3 / weightb=1 / open_gop=0 / weightp=2 / keyint=500 / keyint_min=23 / scenecut=40 / intra_refresh=0 / rc_lookahead=120 / rc=crf / mbtree=1 / crf=17.0 / qcomp=0.90 / qpmin=0 / qpmax=81 / qpstep=4 / ip_ratio=1.40 / aq=2:0.80
    Language                                 : Japanese
    Default                                  : No
    Forced                                   : No
    Color range                              : Limited
    Matrix coefficients                      : BT.601
    
    Audio
    ID                                       : 2
    Format                                   : AC-3
    Format/Info                              : Audio Coding 3
    Mode extension                           : CM (complete main)
    Format settings, Endianness              : Big
    Codec ID                                 : A_AC3
    Duration                                 : 1h 33mn
    Bit rate mode                            : Constant
    Bit rate                                 : 448 Kbps
    Channel(s)                               : 6 channels
    Channel positions                        : Front: L C R, Side: L R, LFE
    Sampling rate                            : 48.0 KHz
    Compression mode                         : Lossy
    Stream size                              : 301 MiB (27%)
    Title                                    : Bleach - Das Hoellenkapitel
    Language                                 : Japanese
    Default                                  : No
    Forced                                   : No
    
    Text
    ID                                       : 3
    Format                                   : ASS
    Codec ID                                 : S_TEXT/ASS
    Codec ID/Info                            : Advanced Sub Station Alpha
    Compression mode                         : Lossless
    Title                                    : [Strawhat] Bleach - Das Hoellenkapitel
    Language                                 : German
    Default                                  : Yes
    Forced                                   : No
    
    



    Geschützter Bereich - Bedanke dich beim Poster, um den Bereich sehen zu können
    Hier erfährst Du wie Du Dich bedanken kannst oder werde jetzt Premium Mitglied ab einer Spende von 5€ und erhalte sofortigen Zugriff auf den Downloadbereich!


    [Links sind nur für registrierte und aktivierte Nutzer sichtbar. Klicke hier um dich zu registrieren.]
    Geändert von 00Ryuji00 (29. April 2016 um 22:25 Uhr) Grund: Head

    [Links sind nur für registrierte und aktivierte Nutzer sichtbar. Klicke hier um dich zu registrieren.]
    Support über PN
    =
    AKTIV

  4. 8 Benutzer sagen Danke:

    Aluaran (22. February 2016),DarkTerminator (3. October 2016),drparnassus (6. April 2016),frankra (15. May 2016),Hinamori309 (13. March 2016),Hiruja (10. October 2016),midnighter (23. June 2016),rinnegan93 (11. November 2016)

Lesezeichen

Berechtigungen

  • Neue Themen erstellen: Nein
  • Themen beantworten: Nein
  • Anhänge hochladen: Nein
  • Beiträge bearbeiten: Nein
  •  

1 2 3 4 5 6 7 8 9 10 11 12 13 14 15 16 17 18 19 20 21 22 23 24 25 26 27 28 29 30 31 32 33 34 35 36 37 38 39 40 41 42 43 44 45 46 47 48 49 50 51 52 53 54 55 56 57 58 59 60 61 62 63 64 65 66 67 68 69 70 71 72 73 74 75 76 77 78 79 80 81 82 83 84 85 86 87 88 89 90 91 92 93 94 95 96 97 98 99 100 101 102 103 104 105 106 107 108 109 110 111 112 113 114 115 116 117 118 119 120 121 122 123 124 125 126 127 128 129 130 131 132 133 134 135 136 137 138 139 140 141 142 143 144 145 146 147 148 149 150 151 152 153 154 155 156 157 158