Ergebnis 1 bis 2 von 2

Thema: Break Blade [Jap-Dub][Ger-Sub][1080p][Bluray] - Cookie-Subs

Dieser Thread wurde noch nicht bewertet. Bewerte ihn doch, wenn er dir gefällt!
  1. #1
    Erfahrener Otaku Avatar von DjRayleigh
    Registriert seit
    Jul 2015
    Beiträge
    195
    Punkte
    2.962
    Errungenschaften:
    1000 ErfahrungspunkteHyperaktivErste GruppeTomodachisSenpai

    Break Blade [Jap-Dub][Ger-Sub][1080p][Bluray] - Cookie-Subs


    Break Blade







    Kurzbeschreibung:
    Zitat Zitat von AniSearch.com
    Rygart Arrow ist der Einzige auf der Welt, der nicht über die Fähigkeit verfügt, Quartz zu aktivieren. Jene Energiequelle sorgt dafür, dass alle Maschinen angetrieben werden. Er verfügt jedoch über illustre Beziehungen, darunter der König und die Königin seines Landes Krisna, die ehemalige Schulfreunde von ihm sind. Ebenso Zess, die Person, die die Armee des benachbarten Königreichs bei ihrem Angriff auf Krisna anführt.

    Über die Gründe, wie es soweit kommen konnte, bleibt Arrow keine Zeit nachzudenken, denn eine Armee in gigantischen, mechanischen Kampfanzügen rückt an. Er fühlt sich dabei überflüssig, bis er auf einen mächtigen, antiken Mecha stößt, den bisher noch niemand in Betrieb nehmen konnte. Durch seine natürliche Affinität für dessen Steuerung ist Arrow nun auf dem besten Weg, die Schlüsselfigur des Konfliktes zu werden...


    Spieldauer: 51min
    Genre: Actiondrama
    Nebengenres: Action, Drama, Fantasy, Mecha
    Jahr: 2010
    Sprache: Japanisch
    Untertitel: Deutsch
    Größe pro Folge: ~1.41 GiB
    Episodenanzahl: 6 /6
    Format: MP4
    Auflösung: 1080p (16:9)
    Videocodec: x264 (AVC)
    Audiocodec: AAC
    Releasegruppe: C-Subs
    Hoster: Share-Online, Uploaded


    MediaInfo
    Code:
    
    Format                                   : MPEG-4
    Format profile                           : Base Media
    Codec ID                                 : isom
    File size                                : 1.41 GiB
    Duration                                 : 51mn 16s
    Overall bit rate mode                    : Variable
    Overall bit rate                         : 3 944 Kbps
    Encoded date                             : UTC 2010-11-27 06:23:46
    Tagged date                              : UTC 2010-11-27 06:23:46
    
    Video
    ID                                       : 1
    Format                                   : AVC
    Format/Info                              : Advanced Video Codec
    Format profile                           : [email protected]
    Format settings, CABAC                   : Yes
    Format settings, ReFrames                : 4 frames
    Codec ID                                 : avc1
    Codec ID/Info                            : Advanced Video Coding
    Duration                                 : 51mn 16s
    Bit rate                                 : 3 499 Kbps
    Maximum bit rate                         : 25.0 Mbps
    Width                                    : 1 920 pixels
    Height                                   : 1 080 pixels
    Display aspect ratio                     : 16:9
    Frame rate mode                          : Constant
    Frame rate                               : 23.976 fps
    Color space                              : YUV
    Chroma subsampling                       : 4:2:0
    Bit depth                                : 8 bits
    Scan type                                : Progressive
    Bits/(Pixel*Frame)                       : 0.070
    Stream size                              : 1.25 GiB (89%)
    Writing library                          : x264 core 98 r1649 20cbe10
    Encoding settings                        : cabac=1 / ref=3 / deblock=1:0:0 / analyse=0x3:0x113 / me=hex / subme=7 / psy=1 / psy_rd=1.00:0.00 / mixed_ref=1 / me_range=16 / chroma_me=1 / trellis=1 / 8x8dct=1 / cqm=0 / deadzone=21,11 / fast_pskip=1 / chroma_qp_offset=-2 / threads=12 / sliced_threads=0 / nr=0 / decimate=1 / interlaced=0 / constrained_intra=0 / bframes=3 / b_pyramid=2 / b_adapt=1 / b_bias=0 / direct=1 / weightb=1 / weightp=2 / keyint=250 / keyint_min=25 / scenecut=40 / intra_refresh=0 / rc_lookahead=40 / rc=2pass / mbtree=1 / bitrate=3499 / ratetol=1.0 / qcomp=0.60 / qpmin=10 / qpmax=51 / qpstep=4 / cplxblur=20.0 / qblur=0.5 / vbv_maxrate=31250 / vbv_bufsize=31250 / ip_ratio=1.40 / aq=1:1.00 / nal_hrd=none
    Encoded date                             : UTC 2010-11-27 00:37:07
    Tagged date                              : UTC 2010-11-27 06:26:27
    
    Audio #1
    ID                                       : 2
    Format                                   : AAC
    Format/Info                              : Advanced Audio Codec
    Format profile                           : LC
    Codec ID                                 : 40
    Duration                                 : 51mn 16s
    Bit rate mode                            : Variable
    Bit rate                                 : 249 Kbps
    Maximum bit rate                         : 329 Kbps
    Channel(s)                               : 2 channels
    Channel(s)_Original                      : 6 channels
    Channel positions                        : Front: L C R, Side: L R, LFE
    Sampling rate                            : 48.0 KHz
    Compression mode                         : Lossy
    Stream size                              : 91.3 MiB (6%)
    Title                                    : 5.1 Sound
    Language                                 : Japanese
    Encoded date                             : UTC 2010-11-27 06:26:15
    Tagged date                              : UTC 2010-11-27 06:26:27
    
    Audio #2
    ID                                       : 3
    Format                                   : AAC
    Format/Info                              : Advanced Audio Codec
    Format profile                           : LC
    Codec ID                                 : 40
    Duration                                 : 51mn 16s
    Bit rate mode                            : Variable
    Bit rate                                 : 192 Kbps
    Maximum bit rate                         : 232 Kbps
    Channel(s)                               : 2 channels
    Channel positions                        : Front: L R
    Sampling rate                            : 48.0 KHz
    Compression mode                         : Lossy
    Stream size                              : 70.1 MiB (5%)
    Title                                    : 2.1 Sound
    Language                                 : Japanese
    Encoded date                             : UTC 2010-11-27 06:26:25
    Tagged date                              : UTC 2010-11-27 06:26:27
    
    





    Geschützter Bereich - Bedanke dich beim Poster, um den Bereich sehen zu können
    Hier erfährst Du wie Du Dich bedanken kannst oder werde jetzt Premium Mitglied ab einer Spende von 5€ und erhalte sofortigen Zugriff auf den Downloadbereich!


    [Links sind nur für registrierte und aktivierte Nutzer sichtbar. Klicke hier um dich zu registrieren.]
    Geändert von so1k (24. November 2016 um 16:47 Uhr)

    [Links sind nur für registrierte und aktivierte Nutzer sichtbar. Klicke hier um dich zu registrieren.]
    Support über PN
    =
    AKTIV

  2. 16 Benutzer sagen Danke:

    acer25 (26. February 2016),Antipott (6. March 2016),Cooky1988 (15. April 2016),DarkTerminator (25. February 2016),fellmer (9. June 2016),Geisterhaendler (27. June 2016),GiftGasBaer (11. April 2016),heikobaer (25. February 2016),janik2009 (22. November 2016),johnny10 (17. August 2016),Nibu (23. August 2016),Ronae (24. February 2016),ShadowWolf (19. October 2016),Shirayah (23. March 2016),Skinsuite (20. May 2016),Tschu23 (24. February 2016)

  3. #2
    Premium Spender Avatar von janik2009
    Registriert seit
    Oct 2013
    Ort
    Deutschland
    Beiträge
    43
    Punkte
    3.779
    Errungenschaften:
    1000 ErfahrungspunkteHikikomoriGang LeaderHyperaktiv

    AW: Break Blade [Jap-Dub][Ger-Sub][1080p][Bluray] - Cookie


    Break Blade
    Broken Blade
    ブレイク ブレイド






    Kurzbeschreibung:
    Zitat Zitat von AniSearch.com
    Rygart Arrow ist der Einzige auf der Welt, der nicht über die Fähigkeit verfügt, Quartz zu aktivieren. Jene Energiequelle sorgt dafür, dass alle Maschinen angetrieben werden. Er verfügt jedoch über illustre Beziehungen, darunter der König und die Königin seines Landes Krisna, die ehemalige Schulfreunde von ihm sind. Ebenso Zess, die Person, die die Armee des benachbarten Königreichs bei ihrem Angriff auf Krisna anführt.

    Über die Gründe, wie es soweit kommen konnte, bleibt Arrow keine Zeit nachzudenken, denn eine Armee in gigantischen, mechanischen Kampfanzügen rückt an. Er fühlt sich dabei überflüssig, bis er auf einen mächtigen, antiken Mecha stößt, den bisher noch niemand in Betrieb nehmen konnte. Durch seine natürliche Affinität für dessen Steuerung ist Arrow nun auf dem besten Weg, die Schlüsselfigur des Konfliktes zu werden...


    Spieldauer: 51
    Genre: Actiondrama
    Nebengenres: Action, Drama, Fantasy, Mecha
    Jahr: 2010
    Sprache: Japanisch
    Untertitel: Deutsch
    Größe pro Folge: ~1.41 GiB
    Episodenanzahl: 6/6
    Format: MP4
    Auflösung: 1080p (16:9)
    Videocodec: x264 (AVC)
    Audiocodec: AAC 5.1, 2.0
    Releasegruppe: Cookie-Subs
    Hoster: Share-Online


    MediaInfo
    Code:
    
    Format                                   : MPEG-4
    Format profile                           : Base Media
    Codec ID                                 : isom
    File size                                : 1.41 GiB
    Duration                                 : 51mn 16s
    Overall bit rate mode                    : Variable
    Overall bit rate                         : 3 944 Kbps
    Encoded date                             : UTC 2010-11-27 06:23:46
    Tagged date                              : UTC 2010-11-27 06:23:46
    
    Video
    ID                                       : 1
    Format                                   : AVC
    Format/Info                              : Advanced Video Codec
    Format profile                           : [email protected]
    Format settings, CABAC                   : Yes
    Format settings, ReFrames                : 4 frames
    Codec ID                                 : avc1
    Codec ID/Info                            : Advanced Video Coding
    Duration                                 : 51mn 16s
    Bit rate                                 : 3 499 Kbps
    Maximum bit rate                         : 25.0 Mbps
    Width                                    : 1 920 pixels
    Height                                   : 1 080 pixels
    Display aspect ratio                     : 16:9
    Frame rate mode                          : Constant
    Frame rate                               : 23.976 fps
    Color space                              : YUV
    Chroma subsampling                       : 4:2:0
    Bit depth                                : 8 bits
    Scan type                                : Progressive
    Bits/(Pixel*Frame)                       : 0.070
    Stream size                              : 1.25 GiB (89%)
    Writing library                          : x264 core 98 r1649 20cbe10
    Encoding settings                        : cabac=1 / ref=3 / deblock=1:0:0 / analyse=0x3:0x113 / me=hex / subme=7 / psy=1 / psy_rd=1.00:0.00 / mixed_ref=1 / me_range=16 / chroma_me=1 / trellis=1 / 8x8dct=1 / cqm=0 / deadzone=21,11 / fast_pskip=1 / chroma_qp_offset=-2 / threads=12 / sliced_threads=0 / nr=0 / decimate=1 / interlaced=0 / constrained_intra=0 / bframes=3 / b_pyramid=2 / b_adapt=1 / b_bias=0 / direct=1 / weightb=1 / weightp=2 / keyint=250 / keyint_min=25 / scenecut=40 / intra_refresh=0 / rc_lookahead=40 / rc=2pass / mbtree=1 / bitrate=3499 / ratetol=1.0 / qcomp=0.60 / qpmin=10 / qpmax=51 / qpstep=4 / cplxblur=20.0 / qblur=0.5 / vbv_maxrate=31250 / vbv_bufsize=31250 / ip_ratio=1.40 / aq=1:1.00 / nal_hrd=none
    Encoded date                             : UTC 2010-11-27 00:37:07
    Tagged date                              : UTC 2010-11-27 06:26:27
    
    Audio #1
    ID                                       : 2
    Format                                   : AAC
    Format/Info                              : Advanced Audio Codec
    Format profile                           : LC
    Codec ID                                 : 40
    Duration                                 : 51mn 16s
    Bit rate mode                            : Variable
    Bit rate                                 : 249 Kbps
    Maximum bit rate                         : 329 Kbps
    Channel(s)                               : 2 channels
    Channel(s)_Original                      : 6 channels
    Channel positions                        : Front: L C R, Side: L R, LFE
    Sampling rate                            : 48.0 KHz
    Compression mode                         : Lossy
    Stream size                              : 91.3 MiB (6%)
    Title                                    : 5.1 Sound
    Language                                 : Japanese
    Encoded date                             : UTC 2010-11-27 06:26:15
    Tagged date                              : UTC 2010-11-27 06:26:27
    
    Audio #2
    ID                                       : 3
    Format                                   : AAC
    Format/Info                              : Advanced Audio Codec
    Format profile                           : LC
    Codec ID                                 : 40
    Duration                                 : 51mn 16s
    Bit rate mode                            : Variable
    Bit rate                                 : 192 Kbps
    Maximum bit rate                         : 232 Kbps
    Channel(s)                               : 2 channels
    Channel positions                        : Front: L R
    Sampling rate                            : 48.0 KHz
    Compression mode                         : Lossy
    Stream size                              : 70.1 MiB (5%)
    Title                                    : 2.1 Sound
    Language                                 : Japanese
    Encoded date                             : UTC 2010-11-27 06:26:25
    Tagged date                              : UTC 2010-11-27 06:26:27
    
    




    Geschützter Bereich - Bedanke dich beim Poster, um den Bereich sehen zu können
    Hier erfährst Du wie Du Dich bedanken kannst oder werde jetzt Premium Mitglied ab einer Spende von 5€ und erhalte sofortigen Zugriff auf den Downloadbereich!

    [Links sind nur für registrierte und aktivierte Nutzer sichtbar. Klicke hier um dich zu registrieren.]

Lesezeichen

Berechtigungen

  • Neue Themen erstellen: Nein
  • Themen beantworten: Nein
  • Anhänge hochladen: Nein
  • Beiträge bearbeiten: Nein
  •  

1 2 3 4 5 6 7 8 9 10 11 12 13 14 15 16 17 18 19 20 21 22 23 24 25 26 27 28 29 30 31 32 33 34 35 36 37 38 39 40 41 42 43 44 45 46 47 48 49 50 51 52 53 54 55 56 57 58 59 60 61 62 63 64 65 66 67 68 69 70 71 72 73 74 75 76 77 78 79 80 81 82 83 84 85 86 87 88 89 90 91 92 93 94 95 96 97 98 99 100 101 102 103 104 105 106 107 108 109 110 111 112 113 114 115 116 117 118 119 120 121 122 123 124 125 126 127 128 129 130 131 132 133 134 135 136 137 138 139 140 141 142 143 144 145 146 147 148 149 150 151 152 153 154 155 156 157 158