Ergebnis 1 bis 1 von 1

Thema: Capricorn [Jap-Dub][Ger-Sub][480p][DVDRip]-HRS

Dieser Thread wurde noch nicht bewertet. Bewerte ihn doch, wenn er dir gefällt!
  1. #1
    United we Stand Avatar von 00Ryuji00
    Registriert seit
    Oct 2012
    Beiträge
    3.896
    Punkte
    99.519
    Errungenschaften:
    TomodachisGang LeaderHikikomoriTagger Amateur50000 Erfahrungspunkte

    Capricorn [Jap-Dub][Ger-Sub][480p][DVDRip]-HRS


    Capricorn
    カプリコン






    Kurzbeschreibung:
    Zitat Zitat von AniSearch.com
    Ein Schüler namens Taku Shimamura findet sich eines Tages plötzlich in einer unbekannten Welt namens Slaffleaze wieder. In dieser Welt leben intelligente Wesen, die für ihn anfangs etwas unheimlich wirken. Zolba, der Anführer dieser Rasse, plant die Erde, dort als Capricorn bezeichnet, zu erobern. Taku muss nun versuchen, Zolba zu stoppen, bevor er die Erde angreifen kann. Jedoch muss er dafür die Liebe und das Vertrauen des letzten Hüters von Slaffleaze gewinnen, denn nur diese kann Zolba aufhalten. Doch dieses Unterfangen stellt sich schwieriger heraus als anfänglich gedacht, denn der letzte Hüter ist nicht nur weiblich, sondern auch noch ein Drache.


    Spieldauer: 45min
    Genre: Abenteuer
    Nebengenres: Abenteuer, Action, Fantasy, Komödie, Männlich, Romanze, Sci-Fi
    Jahr: 1991
    Sprache: Japanisch
    Untertitel: Deutsch
    Größe pro Folge: ~505 MiB
    Episodenanzahl: 1/1
    Format: MKV
    Auflösung: 480p (4:3)
    Videocodec: DivX (MPEG-4 Visual)
    Audiocodec: MPEG Audio
    Releasegruppe: HRS
    Hoster: Share-Online, Uploaded


    MediaInfo
    Code:
    
    Format                                   : Matroska
    Format version                           : Version 4 / Version 2
    File size                                : 505 MiB
    Duration                                 : 47mn 13s
    Overall bit rate                         : 1 495 Kbps
    Encoded date                             : UTC 2015-01-07 15:06:19
    Writing application                      : mkvmerge v7.1.0 ('Good Love') 32bit built on Jul 27 2014 12:59:18
    Writing library                          : libebml v1.3.0 + libmatroska v1.4.1
    Attachements                             : One Stroke Script Bold LET Plain-.ttf / impact.ttf
    _STATISTICS_WRITING_APP                  : mkvmerge v7.1.0 ('Good Love') 32bit built on Jul 27 2014 12:59:18
    _STATISTICS_WRITING_DATE_UTC             : 2015-01-07 15:06:19
    _STATISTICS_TAGS                         : BPS DURATION NUMBER_OF_FRAMES NUMBER_OF_BYTES
    DURATION                                 : 00:45:34.600000000
    NUMBER_OF_FRAMES                         : 404
    NUMBER_OF_BYTES                          : 24880
    
    Video
    ID                                       : 1
    Format                                   : MPEG-4 Visual
    Format settings, BVOP                    : 1
    Format settings, QPel                    : No
    Format settings, GMC                     : No warppoints
    Format settings, Matrix                  : Default (H.263)
    Muxing mode                              : Packed bitstream
    Codec ID                                 : V_MS/VFW/FOURCC / DX50
    Codec ID/Hint                            : DivX 5
    Duration                                 : 47mn 13s
    Bit rate                                 : 1 338 Kbps
    Width                                    : 640 pixels
    Height                                   : 480 pixels
    Display aspect ratio                     : 4:3
    Frame rate mode                          : Constant
    Frame rate                               : 23.976 fps
    Color space                              : YUV
    Chroma subsampling                       : 4:2:0
    Bit depth                                : 8 bits
    Scan type                                : Progressive
    Compression mode                         : Lossy
    Bits/(Pixel*Frame)                       : 0.182
    Stream size                              : 452 MiB (89%)
    Title                                    : [Reb] Capricorn
    Writing library                          : DivX 5.0.2 (UTC 2002-05-16)
    Language                                 : Japanese
    Default                                  : Yes
    Forced                                   : No
    
    Audio
    ID                                       : 2
    Format                                   : MPEG Audio
    Format version                           : Version 1
    Format profile                           : Layer 3
    Mode                                     : Joint stereo
    Mode extension                           : MS Stereo
    Codec ID                                 : A_MPEG/L3
    Codec ID/Hint                            : MP3
    Duration                                 : 47mn 13s
    Bit rate mode                            : Constant
    Bit rate                                 : 128 Kbps
    Channel(s)                               : 2 channels
    Sampling rate                            : 48.0 KHz
    Compression mode                         : Lossy
    Stream size                              : 43.2 MiB (9%)
    Title                                    : Japanese
    Language                                 : Japanese
    Default                                  : Yes
    Forced                                   : No
    
    Text
    ID                                       : 3
    Format                                   : ASS
    Codec ID                                 : S_TEXT/ASS
    Codec ID/Info                            : Advanced Sub Station Alpha
    Compression mode                         : Lossless
    Language                                 : German
    Default                                  : Yes
    Forced                                   : Yes
    
    





    Geschützter Bereich - Bedanke dich beim Poster, um den Bereich sehen zu können
    Hier erfährst Du wie Du Dich bedanken kannst oder werde jetzt Premium Mitglied ab einer Spende von 5€ und erhalte sofortigen Zugriff auf den Downloadbereich!


    [Links sind nur für registrierte und aktivierte Nutzer sichtbar. Klicke hier um dich zu registrieren.]
    Geändert von 00Ryuji00 (30. April 2016 um 17:11 Uhr)
    !!!Alle Anliegen bezüglich Uploads werden nur mit direktem Threadlink zum Angebot bearbeitet!!!

    Re-Uploadanfragen nur per PN - Ihr könnt mir auch Listen schicken

    Re-Uploads erfolgen meist innerhalb 24h, kann aber auch bis zu 7 Tage dauern

    [Links sind nur für registrierte und aktivierte Nutzer sichtbar. Klicke hier um dich zu registrieren.] | [Links sind nur für registrierte und aktivierte Nutzer sichtbar. Klicke hier um dich zu registrieren.] | >[Links sind nur für registrierte und aktivierte Nutzer sichtbar. Klicke hier um dich zu registrieren.]<
    [Links sind nur für registrierte und aktivierte Nutzer sichtbar. Klicke hier um dich zu registrieren.]

  2. 10 Benutzer sagen Danke:

    Antipott (6. March 2016),bloodyfloh (15. December 2015),Hisamaki (16. December 2015),kanita (16. December 2015),KeyEX99 (29. February 2016),LawrenceKraft (31. December 2015),midnighter (27. January 2016),prinzvegeta (31. December 2015),Ravyn2805 (23. August 2016),Ronae (21. December 2015)

Lesezeichen

Berechtigungen

  • Neue Themen erstellen: Nein
  • Themen beantworten: Nein
  • Anhänge hochladen: Nein
  • Beiträge bearbeiten: Nein
  •  

1 2 3 4 5 6 7 8 9 10 11 12 13 14 15 16 17 18 19 20 21 22 23 24 25 26 27 28 29 30 31 32 33 34 35 36 37 38 39 40 41 42 43 44 45 46 47 48 49 50 51 52 53 54 55 56 57 58 59 60 61 62 63 64 65 66 67 68 69 70 71 72 73 74 75 76 77 78 79 80 81 82 83 84 85 86 87 88 89 90 91 92 93 94 95 96 97 98 99 100 101 102 103 104 105 106 107 108 109 110 111 112 113 114 115 116 117 118 119 120 121 122 123 124 125 126 127 128 129 130 131 132 133 134 135 136 137 138 139 140 141 142 143 144 145 146 147 148 149 150 151 152 153 154 155 156 157 158