Ergebnis 1 bis 1 von 1

Thema: Denpa teki na Kanojo OVA [Jap-Dub] [Ger-Sub] [DVDRip]

Dieser Thread wurde noch nicht bewertet. Bewerte ihn doch, wenn er dir gefällt!
  1. #1
    United we Stand Avatar von 00Ryuji00
    Registriert seit
    Oct 2012
    Beiträge
    3.902
    Punkte
    99.938
    Errungenschaften:
    TomodachisGang LeaderHikikomoriTagger Amateur50000 Erfahrungspunkte

    Denpa teki na Kanojo OVA [Jap-Dub] [Ger-Sub] [DVDRip]

    Denpa teki na Kanojo
    電波的な彼女
    Electromagnetic Girlfriend






    Kurzbeschreibung:
    Der Schüler Jūzawa Jū ist ein Einzelgänger, der eines Tages von einem Mädchen, Ochibana Ame, angesprochen wird. Sie gibt vor, ihn aus einem früheren Leben zu kennen und von nun an als Dienerin bedingungslos zu folgen. Zuerst weist er Ame zurück, doch als ein Mädchen aus seiner Klasse ermordet wird, legt er seine anfänglichen Zweifel ab, da sie bereits dem Mörder auf der Spur ist...


    Sprache: Japanisch
    Untertitel: Deutsch
    Größe: ~400 MB
    Episodenanzahl: 2/2
    Format: .mkv
    Auflösung: 480p (864x480, 16:9)
    Codec: x264
    Gruppe: Nanaone
    Hoster: Share-Online ; Uploaded


    Datei Info:
    Spoiler

    Code:
    
    
    Format                                   : Matroska
    Format version                           : Version 2
    File size                                : 399 MiB
    Duration                                 : 41mn 59s
    Overall bit rate mode                    : Variable
    Overall bit rate                         : 1 328 Kbps
    Encoded date                             : UTC 2009-10-07 14:32:58
    Writing application                      : mkvmerge v2.9.7 ('Tenderness') built on Jul  1 2009 18:43:35
    Writing library                          : libebml v0.7.7 + libmatroska v0.8.1
    
    Video
    ID                                       : 1
    Format                                   : AVC
    Format/Info                              : Advanced Video Codec
    Format profile                           : [email protected]
    Format settings, CABAC                   : Yes
    Format settings, ReFrames                : 16 frames
    Codec ID                                 : V_MPEG4/ISO/AVC
    Duration                                 : 41mn 59s
    Bit rate                                 : 1 213 Kbps
    Width                                    : 864 pixels
    Height                                   : 480 pixels
    Display aspect ratio                     : 16:9
    Frame rate mode                          : Constant
    Frame rate                               : 23.976 fps
    Color space                              : YUV
    Chroma subsampling                       : 4:2:0
    Bit depth                                : 8 bits
    Scan type                                : Progressive
    Bits/(Pixel*Frame)                       : 0.122
    Stream size                              : 352 MiB (88%)
    Writing library                          : x264 core 68 r1183M f21daff
    Encoding settings                        : cabac=1 / ref=16 / deblock=1:2:2 / analyse=0x3:0x133 / me=tesa / subme=9 / psy_rd=1.0:0.0 / mixed_ref=1 / me_range=32 / chroma_me=1 / trellis=2 / 8x8dct=1 / cqm=0 / deadzone=21,11 / chroma_qp_offset=-2 / threads=3 / nr=0 / decimate=0 / mbaff=0 / bframes=2 / b_pyramid=1 / b_adapt=2 / b_bias=0 / direct=2 / wpredb=1 / keyint=240 / keyint_min=25 / scenecut=40 / rc=2pass / bitrate=1213 / ratetol=1.0 / qcomp=0.60 / qpmin=10 / qpmax=51 / qpstep=4 / cplxblur=20.0 / qblur=0.5 / ip_ratio=1.40 / pb_ratio=1.30 / aq=1:1.00
    Default                                  : Yes
    Forced                                   : No
    
    Audio
    ID                                       : 2
    Format                                   : Vorbis
    Format settings, Floor                   : 1
    Codec ID                                 : A_VORBIS
    Duration                                 : 41mn 59s
    Bit rate mode                            : Variable
    Bit rate                                 : 128 Kbps
    Channel count                            : 2 channels
    Sampling rate                            : 48.0 KHz
    Compression mode                         : Lossy
    Stream size                              : 38.4 MiB (10%)
    Writing library                          : aoTuV b5c  (UTC 2008-12-15)
    Default                                  : Yes
    Forced                                   : No
    
    





    Geschützter Bereich - Bedanke dich beim Poster, um den Bereich sehen zu können
    Hier erfährst Du wie Du Dich bedanken kannst oder werde jetzt Premium Mitglied ab einer Spende von 5€ und erhalte sofortigen Zugriff auf den Downloadbereich!

    Geändert von 00Ryuji00 (3. May 2016 um 15:13 Uhr)
    !!!Alle Anliegen bezüglich Uploads werden nur mit direktem Threadlink zum Angebot bearbeitet!!!

    Re-Uploadanfragen nur per PN - Ihr könnt mir auch Listen schicken

    Re-Uploads erfolgen meist innerhalb 24h, kann aber auch bis zu 7 Tage dauern

    [Links sind nur für registrierte und aktivierte Nutzer sichtbar. Klicke hier um dich zu registrieren.] | [Links sind nur für registrierte und aktivierte Nutzer sichtbar. Klicke hier um dich zu registrieren.] | >[Links sind nur für registrierte und aktivierte Nutzer sichtbar. Klicke hier um dich zu registrieren.]<
    [Links sind nur für registrierte und aktivierte Nutzer sichtbar. Klicke hier um dich zu registrieren.]

  2. 26 Benutzer sagen Danke:

    aironic_inactive (15. July 2015),Alecith (19. May 2015),Aluaran (18. May 2015),BANDIMO (14. September 2015),basdi (3. February 2016),Benjiro (17. June 2015),Chaosity (30. September 2015),ChristianLake (17. May 2015),Dreieckhard (18. May 2015),Gorbatschow (6. December 2015),Griever (16. March 2016),Hi im Shini (28. December 2015),johnny10 (10. September 2015),Kaede (26. July 2015),Latyr (29. November 2015),Lemgon (24. July 2015),Llyrell (7. February 2016),Lunacy (24. September 2015),Raphael96 (28. April 2016),Ronae (17. May 2015),SciTeC (26. August 2015),ssj3shad (18. June 2015),swagrid (25. February 2016),Sylux (6. September 2015),Varkoo (22. October 2015),Wölfchen (17. May 2015)

Lesezeichen

Berechtigungen

  • Neue Themen erstellen: Nein
  • Themen beantworten: Nein
  • Anhänge hochladen: Nein
  • Beiträge bearbeiten: Nein
  •  

1 2 3 4 5 6 7 8 9 10 11 12 13 14 15 16 17 18 19 20 21 22 23 24 25 26 27 28 29 30 31 32 33 34 35 36 37 38 39 40 41 42 43 44 45 46 47 48 49 50 51 52 53 54 55 56 57 58 59 60 61 62 63 64 65 66 67 68 69 70 71 72 73 74 75 76 77 78 79 80 81 82 83 84 85 86 87 88 89 90 91 92 93 94 95 96 97 98 99 100 101 102 103 104 105 106 107 108 109 110 111 112 113 114 115 116 117 118 119 120 121 122 123 124 125 126 127 128 129 130 131 132 133 134 135 136 137 138 139 140 141 142 143 144 145 146 147 148 149 150 151 152 153 154 155 156 157 158