Ergebnis 1 bis 1 von 1

Thema: Digimon Adventure 02: Diablomon no Gyakushuu [Film 04][Jap-Dub][Ger-Sub][400p/720p/1080p][BluRay] - TnF

Dieser Thread wurde noch nicht bewertet. Bewerte ihn doch, wenn er dir gefällt!
  1. #1
    Kami-sama Avatar von galudo
    Registriert seit
    Mar 2015
    Beiträge
    1.371
    Punkte
    26.064
    Errungenschaften:
    TomodachisTagger ProfiHyperaktivSenpaiGang Leader

    Digimon Adventure 02: Diablomon no Gyakushuu [Film 04][Jap-Dub][Ger-Sub][400p/720p/1080p][BluRay] - TnF

    Digimon Adventure 02: Diablomon no Gyakushuu
    Digimon Adventure 02 - Diablomon Strikes Back
    Digimon Adventure 02 - Diablomon schlägt zurück



    Kurzbeschreibung
    Es stellt sich heraus, dass Diablomon gar nicht von Omegamon vernichtet wurde. Er ist wieder da und schickt zugleich Kuramon in die reale Welt. Zudem verbreitet er private Bilder von Yamato und Taichi in der Cyberwelt, weswegen sich auch die beiden in die Cyberwelt aufmachen, um mit Omegamon zu reden, während die jüngeren Digi-Ritter sich mit dem randalierenden Kuramon beschäftigen. Es schien, als ob dank der Hilfe von Angemon, Angewomon, Omegamon, Takeru und Hikari es tatsächlich gelungen wäre, gemeinsam Diablomon erneut zu besiegen, doch dieser Schein trügt. Das stellte sich nämlich nur als eine weitere Falle Diablomons heraus, um noch mehr Kuramons in die reale Welt schicken zu können. Der Höhepunkt sollte aber noch in Form von fusionierten Kuramon kommen, welche nun zur ultimativen Evolutionsstufe Armagemon digitiert sind, welcher sogar die Power von Omegamon und Imperial Dramon in den Schatten stellt. Was können die Kinder noch tun, um das Schlimmste zu verhindern?
    Format: MP4
    Sprache: Japanisch
    Untertitel: Deutsch
    Größe: ~ 0,25 GB / 0,59 GB / 1,32 GB
    Dauer: ~ 30 Minuten
    Jahr: 2001
    Video: 400p / 720p / 1080p
    Source: BluRay
    Subgroup / Releasegroup: Tomo ni Fansubs
    Hoster: Share-Online| Uploaded
    Passwort: siehe unten


    Datei-Info
    MediaInfo
    400p
    Code:
    General
    Complete name                  : [TnF]Digimon Adventure 02 - Diablomon no Gyakushuu[SD][DE928B26].mp4
    Format                         : MPEG-4
    Format profile                 : Base Media
    Codec ID                       : isom
    File size                      : 254 MiB
    Duration                       : 29mn 59s
    Overall bit rate mode          : Variable
    Overall bit rate               : 1 182 Kbps
    Encoded date                   : UTC 2016-01-22 15:37:22
    Tagged date                    : UTC 2016-01-22 15:37:22
    
    Video
    ID                             : 1
    Format                         : AVC
    Format/Info                    : Advanced Video Codec
    Format profile                 : [email protected]
    Format settings, CABAC         : Yes
    Format settings, ReFrames      : 6 frames
    Codec ID                       : avc1
    Codec ID/Info                  : Advanced Video Coding
    Duration                       : 29mn 59s
    Bit rate                       : 956 Kbps
    Maximum bit rate               : 8 543 Kbps
    Width                          : 720 pixels
    Height                         : 400 pixels
    Display aspect ratio           : 16:9
    Frame rate mode                : Constant
    Frame rate                     : 23.976 fps
    Color space                    : YUV
    Chroma subsampling             : 4:2:0
    Bit depth                      : 8 bits
    Scan type                      : Progressive
    Bits/(Pixel*Frame)             : 0.138
    Stream size                    : 205 MiB (81%)
    Writing library                : x264 core 148 r2638 7599210
    Encoding settings              : cabac=1 / ref=6 / deblock=1:1:1 / analyse=0x3:0x133 / me=tesa / subme=9 / psy=1 / psy_rd=1.00:0.15 / mixed_ref=1 / me_range=32 / chroma_me=1 / trellis=2 / 8x8dct=1 / cqm=0 / deadzone=21,11 / fast_pskip=0 / chroma_qp_offset=-3 / threads=12 / lookahead_threads=3 / sliced_threads=0 / nr=0 / decimate=1 / interlaced=0 / bluray_compat=0 / constrained_intra=0 / bframes=16 / b_pyramid=2 / b_adapt=2 / b_bias=0 / direct=3 / weightb=1 / open_gop=0 / weightp=2 / keyint=250 / keyint_min=23 / scenecut=40 / intra_refresh=0 / rc_lookahead=60 / rc=crf / mbtree=1 / crf=18.5 / qcomp=0.60 / qpmin=0 / qpmax=69 / qpstep=4 / vbv_maxrate=24000 / vbv_bufsize=24000 / crf_max=0.0 / nal_hrd=none / filler=0 / ip_ratio=1.40 / aq=1:1.00
    Encoded date                   : UTC 2016-01-06 01:34:32
    Tagged date                    : UTC 2016-01-22 15:37:46
    
    Audio
    ID                             : 2
    Format                         : AAC
    Format/Info                    : Advanced Audio Codec
    Format profile                 : LC
    Codec ID                       : 40
    Duration                       : 29mn 59s
    Bit rate mode                  : Variable
    Bit rate                       : 222 Kbps
    Maximum bit rate               : 255 Kbps
    Channel(s)                     : 2 channels
    Channel positions              : Front: L R
    Sampling rate                  : 48.0 KHz
    Compression mode               : Lossy
    Stream size                    : 47.6 MiB (19%)
    Encoded date                   : UTC 2016-01-22 15:37:45
    Tagged date                    : UTC 2016-01-22 15:37:46
    720p
    Code:
    General
    Complete name                  : [TnF]Digimon Adventure 02 - Diablomon no Gyakushuu[HD][EA7137C7].mp4
    Format                         : MPEG-4
    Format profile                 : Base Media
    Codec ID                       : isom
    File size                      : 593 MiB
    Duration                       : 29mn 59s
    Overall bit rate mode          : Variable
    Overall bit rate               : 2 762 Kbps
    Encoded date                   : UTC 2016-01-22 15:36:12
    Tagged date                    : UTC 2016-01-22 15:36:12
    
    Video
    ID                             : 1
    Format                         : AVC
    Format/Info                    : Advanced Video Codec
    Format profile                 : [email protected]
    Format settings, CABAC         : Yes
    Format settings, ReFrames      : 6 frames
    Codec ID                       : avc1
    Codec ID/Info                  : Advanced Video Coding
    Duration                       : 29mn 59s
    Bit rate                       : 2 536 Kbps
    Maximum bit rate               : 16.4 Mbps
    Width                          : 1 280 pixels
    Height                         : 720 pixels
    Display aspect ratio           : 16:9
    Frame rate mode                : Constant
    Frame rate                     : 23.976 fps
    Color space                    : YUV
    Chroma subsampling             : 4:2:0
    Bit depth                      : 8 bits
    Scan type                      : Progressive
    Bits/(Pixel*Frame)             : 0.115
    Stream size                    : 544 MiB (92%)
    Writing library                : x264 core 148 r2638 7599210
    Encoding settings              : cabac=1 / ref=6 / deblock=1:1:1 / analyse=0x3:0x133 / me=tesa / subme=9 / psy=1 / psy_rd=1.00:0.15 / mixed_ref=1 / me_range=32 / chroma_me=1 / trellis=2 / 8x8dct=1 / cqm=0 / deadzone=21,11 / fast_pskip=0 / chroma_qp_offset=-3 / threads=12 / lookahead_threads=3 / sliced_threads=0 / nr=0 / decimate=1 / interlaced=0 / bluray_compat=0 / constrained_intra=0 / bframes=16 / b_pyramid=2 / b_adapt=2 / b_bias=0 / direct=3 / weightb=1 / open_gop=0 / weightp=2 / keyint=250 / keyint_min=23 / scenecut=40 / intra_refresh=0 / rc_lookahead=60 / rc=crf / mbtree=1 / crf=18.5 / qcomp=0.60 / qpmin=0 / qpmax=69 / qpstep=4 / vbv_maxrate=24000 / vbv_bufsize=24000 / crf_max=0.0 / nal_hrd=none / filler=0 / ip_ratio=1.40 / aq=1:1.00
    Encoded date                   : UTC 2016-01-06 00:56:01
    Tagged date                    : UTC 2016-01-22 15:37:04
    
    Audio
    ID                             : 2
    Format                         : AAC
    Format/Info                    : Advanced Audio Codec
    Format profile                 : LC
    Codec ID                       : 40
    Duration                       : 29mn 59s
    Bit rate mode                  : Variable
    Bit rate                       : 222 Kbps
    Maximum bit rate               : 255 Kbps
    Channel(s)                     : 2 channels
    Channel positions              : Front: L R
    Sampling rate                  : 48.0 KHz
    Compression mode               : Lossy
    Stream size                    : 47.6 MiB (8%)
    Encoded date                   : UTC 2016-01-22 15:37:03
    Tagged date                    : UTC 2016-01-22 15:37:04
    1080p
    Code:
    General
    Complete name                  : [TnF]Digimon Adventure 02 - Diablomon no Gyakushuu[FHD][602257BA].mp4
    Format                         : MPEG-4
    Format profile                 : Base Media
    Codec ID                       : isom
    File size                      : 1.32 GiB
    Duration                       : 29mn 59s
    Overall bit rate mode          : Variable
    Overall bit rate               : 6 307 Kbps
    Encoded date                   : UTC 2016-01-22 15:34:41
    Tagged date                    : UTC 2016-01-22 15:34:41
    Writing application            : Yamb 2.1.0.0 [http://yamb.unite-video.com]
    
    Video
    ID                             : 1
    Format                         : AVC
    Format/Info                    : Advanced Video Codec
    Format profile                 : [email protected]
    Format settings, CABAC         : Yes
    Format settings, ReFrames      : 6 frames
    Codec ID                       : avc1
    Codec ID/Info                  : Advanced Video Coding
    Duration                       : 29mn 59s
    Bit rate                       : 6 081 Kbps
    Maximum bit rate               : 27.3 Mbps
    Width                          : 1 920 pixels
    Height                         : 1 080 pixels
    Display aspect ratio           : 16:9
    Frame rate mode                : Constant
    Frame rate                     : 23.976 fps
    Color space                    : YUV
    Chroma subsampling             : 4:2:0
    Bit depth                      : 8 bits
    Scan type                      : Progressive
    Bits/(Pixel*Frame)             : 0.122
    Stream size                    : 1.27 GiB (96%)
    Writing library                : x264 core 148 r2638 7599210
    Encoding settings              : cabac=1 / ref=6 / deblock=1:1:1 / analyse=0x3:0x133 / me=tesa / subme=9 / psy=1 / psy_rd=1.00:0.15 / mixed_ref=1 / me_range=32 / chroma_me=1 / trellis=2 / 8x8dct=1 / cqm=0 / deadzone=21,11 / fast_pskip=0 / chroma_qp_offset=-3 / threads=12 / lookahead_threads=3 / sliced_threads=0 / nr=0 / decimate=1 / interlaced=0 / bluray_compat=0 / constrained_intra=0 / bframes=16 / b_pyramid=2 / b_adapt=2 / b_bias=0 / direct=3 / weightb=1 / open_gop=0 / weightp=2 / keyint=250 / keyint_min=23 / scenecut=40 / intra_refresh=0 / rc_lookahead=60 / rc=crf / mbtree=1 / crf=18.5 / qcomp=0.60 / qpmin=0 / qpmax=69 / qpstep=4 / vbv_maxrate=24000 / vbv_bufsize=24000 / crf_max=0.0 / nal_hrd=none / filler=0 / ip_ratio=1.40 / aq=1:1.00
    Encoded date                   : UTC 2016-01-05 22:41:51
    Tagged date                    : UTC 2016-01-22 15:35:33
    
    Audio
    ID                             : 2
    Format                         : AAC
    Format/Info                    : Advanced Audio Codec
    Format profile                 : LC
    Codec ID                       : 40
    Duration                       : 29mn 59s
    Bit rate mode                  : Variable
    Bit rate                       : 222 Kbps
    Maximum bit rate               : 255 Kbps
    Channel(s)                     : 2 channels
    Channel positions              : Front: L R
    Sampling rate                  : 48.0 KHz
    Compression mode               : Lossy
    Stream size                    : 47.6 MiB (4%)
    Encoded date                   : UTC 2016-01-22 15:35:31
    Tagged date                    : UTC 2016-01-22 15:35:33


    Unterschiedliche Partanzahl

    || Download & Passwort ||
    Geschützter Bereich - Bedanke dich beim Poster, um den Bereich sehen zu können
    Hier erfährst Du wie Du Dich bedanken kannst oder werde jetzt Premium Mitglied ab einer Spende von 5€ und erhalte sofortigen Zugriff auf den Downloadbereich!

    Geändert von galudo (21. April 2016 um 17:03 Uhr)
    SUPPORT UND REUP ANFRAGEN NUR >> [Links sind nur für registrierte und aktivierte Nutzer sichtbar. Klicke hier um dich zu registrieren.] <<
    Bitte IMMER den Thread-Link mitschicken.

  2. 15 Benutzer sagen Danke:

    Besen 48 (16. August 2016),drparnassus (17. February 2016),Dylan (16. March 2016),falkenauge11 (12. February 2016),FantasticZ (22. February 2016),Hirs_E_Fruit (20. February 2016),KeyEX99 (29. February 2016),Kradus (3. March 2016),manninator (19. October 2016),manuel4193 (5. February 2016),midnighter (9. February 2016),SONNYxq (7. February 2016),Suigetsu (7. February 2016),Tschu23 (5. February 2016),warhammerx (9. July 2016)

Stichworte

Lesezeichen

Berechtigungen

  • Neue Themen erstellen: Nein
  • Themen beantworten: Nein
  • Anhänge hochladen: Nein
  • Beiträge bearbeiten: Nein
  •  

1 2 3 4 5 6 7 8 9 10 11 12 13 14 15 16 17 18 19 20 21 22 23 24 25 26 27 28 29 30 31 32 33 34 35 36 37 38 39 40 41 42 43 44 45 46 47 48 49 50 51 52 53 54 55 56 57 58 59 60 61 62 63 64 65 66 67 68 69 70 71 72 73 74 75 76 77 78 79 80 81 82 83 84 85 86 87 88 89 90 91 92 93 94 95 96 97 98 99 100 101 102 103 104 105 106 107 108 109 110 111 112 113 114 115 116 117 118 119 120 121 122 123 124 125 126 127 128 129 130 131 132 133 134 135 136 137 138 139 140 141 142 143 144 145 146 147 148 149 150 151 152 153 154 155 156 157 158