Ergebnis 1 bis 1 von 1

Thema: Eiga Precure All Stars DX2: Kibou no Hikari - Rainbow Jewel o Mamore! [Jap-Dub][Ger-Sub][720p][BluRay]-MGS

Dieser Thread wurde noch nicht bewertet. Bewerte ihn doch, wenn er dir gefällt!
  1. #1
    United we Stand Avatar von 00Ryuji00
    Registriert seit
    Oct 2012
    Beiträge
    3.896
    Punkte
    99.519
    Errungenschaften:
    TomodachisGang LeaderHikikomoriTagger Amateur50000 Erfahrungspunkte

    Eiga Precure All Stars DX2: Kibou no Hikari - Rainbow Jewel o Mamore! [Jap-Dub][Ger-Sub][720p][BluRay]-MGS


    Eiga Precure All Stars DX2: Kibou no Hikari - Rainbow Jewel o Mamore!
    映画 プリキュアオールスターズDX2 希望の光☆レインボージュエルを守れ!
    Precure All Stars DX2: Light of Hope - Protect the Rainbow Angel
    Pretty Cure All Stars DX 2: Light of Hope - Protect the Rainbow Jewel






    Kurzbeschreibung:
    Zitat Zitat von AniSearch.com
    Tsubomi Hanasaki wird eines Morgens von ihrer besten Freundin Erika Kurumi geweckt mit der schlechten Nachricht, dass ihre Feen Coffret und Shypre verschwunden sind! Diese haben jedoch eine Nachricht hinterlassen, dass sie im Fairy Park zu finden sind. Dort wollen sich heute am Eröffnungstag auch alle anderen PreCures nach langer Zeit treffen. In dem Themenpark befindet sich der "Regenbogen Juwel", ein wertvoller Edelstein, welcher alle Hoffnungen und Träume der Menschen auf der ganzen Welt widerspiegelt. Kein Wunder, dass sich die bösen Mächte diesen mächtigen Stein zu Nutze machen wollen und den Stein in ihren Besitz bringen möchten. Wird es den vereinten Kräften der PreCures gelingen den Stein zu beschützen?


    Spieldauer: 71min
    Genre: Action
    Nebengenres: Action, Komödie, Magical Girl, Weiblich
    Jahr: 2010
    Sprache: Japanisch
    Untertitel: Deutsch
    Größe pro Folge: ~1.97 GiB
    Episodenanzahl: 1/1
    Format: MP4
    Auflösung: 720p (16:9)
    Videocodec: x264 (AVC)
    Audiocodec: AAC
    Releasegruppe: MGS
    Hoster: Share-Online, Uploaded


    MediaInfo
    Code:
    
    Format                                   : MPEG-4
    Format profile                           : Base Media
    Codec ID                                 : isom
    File size                                : 1.97 GiB
    Duration                                 : 1h 10mn
    Overall bit rate mode                    : Variable
    Overall bit rate                         : 3 971 Kbps
    Encoded date                             : UTC 2010-12-21 09:31:23
    Tagged date                              : UTC 2010-12-21 09:31:23
    
    Video
    ID                                       : 1
    Format                                   : AVC
    Format/Info                              : Advanced Video Codec
    Format profile                           : [email protected]
    Format settings, CABAC                   : Yes
    Format settings, ReFrames                : 8 frames
    Format settings, GOP                     : N=1
    Codec ID                                 : avc1
    Codec ID/Info                            : Advanced Video Coding
    Duration                                 : 1h 10mn
    Source duration                          : 13mn 41s
    Bit rate                                 : 3 840 Kbps
    Maximum bit rate                         : 22.4 Mbps
    Width                                    : 1 280 pixels
    Height                                   : 720 pixels
    Display aspect ratio                     : 16:9
    Frame rate mode                          : Constant
    Frame rate                               : 23.976 fps
    Color space                              : YUV
    Chroma subsampling                       : 4:2:0
    Bit depth                                : 8 bits
    Scan type                                : Progressive
    Bits/(Pixel*Frame)                       : 0.174
    Stream size                              : 1.90 GiB (97%)
    Source stream size                       : 1.90 GiB (97%)
    Writing library                          : x264 core 68 r1183M f21daff
    Encoding settings                        : cabac=1 / ref=8 / deblock=1:1:1 / analyse=0x3:0x133 / me=umh / subme=7 / psy_rd=0.6:0.0 / mixed_ref=1 / me_range=16 / chroma_me=1 / trellis=2 / 8x8dct=1 / cqm=0 / deadzone=21,11 / chroma_qp_offset=-2 / threads=6 / nr=0 / decimate=1 / mbaff=0 / bframes=16 / b_pyramid=1 / b_adapt=1 / b_bias=0 / direct=3 / wpredb=0 / keyint=250 / keyint_min=25 / scenecut=40 / rc=2pass / bitrate=3840 / ratetol=1.0 / qcomp=0.60 / qpmin=10 / qpmax=51 / qpstep=4 / cplxblur=20.0 / qblur=0.5 / ip_ratio=1.40 / pb_ratio=1.30 / aq=0
    Encoded date                             : UTC 2010-12-20 22:36:29
    Tagged date                              : UTC 2010-12-21 09:34:15
    mdhd_Duration                            : 4257594
    
    Audio
    ID                                       : 2
    Format                                   : AAC
    Format/Info                              : Advanced Audio Codec
    Format profile                           : HE-AAC / LC
    Codec ID                                 : 40
    Duration                                 : 1h 10mn
    Bit rate mode                            : Variable
    Bit rate                                 : 128 Kbps
    Maximum bit rate                         : 156 Kbps
    Channel(s)                               : 2 channels
    Channel positions                        : Front: L R
    Sampling rate                            : 48.0 KHz / 24.0 KHz
    Compression mode                         : Lossy
    Stream size                              : 65.0 MiB (3%)
    Encoded date                             : UTC 2010-12-21 09:34:08
    Tagged date                              : UTC 2010-12-21 09:34:15
    
    





    Geschützter Bereich - Bedanke dich beim Poster, um den Bereich sehen zu können
    Hier erfährst Du wie Du Dich bedanken kannst oder werde jetzt Premium Mitglied ab einer Spende von 5€ und erhalte sofortigen Zugriff auf den Downloadbereich!


    [Links sind nur für registrierte und aktivierte Nutzer sichtbar. Klicke hier um dich zu registrieren.]
    Geändert von 00Ryuji00 (30. April 2016 um 17:07 Uhr)
    !!!Alle Anliegen bezüglich Uploads werden nur mit direktem Threadlink zum Angebot bearbeitet!!!

    Re-Uploadanfragen nur per PN - Ihr könnt mir auch Listen schicken

    Re-Uploads erfolgen meist innerhalb 24h, kann aber auch bis zu 7 Tage dauern

    [Links sind nur für registrierte und aktivierte Nutzer sichtbar. Klicke hier um dich zu registrieren.] | [Links sind nur für registrierte und aktivierte Nutzer sichtbar. Klicke hier um dich zu registrieren.] | >[Links sind nur für registrierte und aktivierte Nutzer sichtbar. Klicke hier um dich zu registrieren.]<
    [Links sind nur für registrierte und aktivierte Nutzer sichtbar. Klicke hier um dich zu registrieren.]

  2. 2 Benutzer sagen Danke:

    midnighter (1. February 2016),Ronae (2. January 2016)

Lesezeichen

Berechtigungen

  • Neue Themen erstellen: Nein
  • Themen beantworten: Nein
  • Anhänge hochladen: Nein
  • Beiträge bearbeiten: Nein
  •  

1 2 3 4 5 6 7 8 9 10 11 12 13 14 15 16 17 18 19 20 21 22 23 24 25 26 27 28 29 30 31 32 33 34 35 36 37 38 39 40 41 42 43 44 45 46 47 48 49 50 51 52 53 54 55 56 57 58 59 60 61 62 63 64 65 66 67 68 69 70 71 72 73 74 75 76 77 78 79 80 81 82 83 84 85 86 87 88 89 90 91 92 93 94 95 96 97 98 99 100 101 102 103 104 105 106 107 108 109 110 111 112 113 114 115 116 117 118 119 120 121 122 123 124 125 126 127 128 129 130 131 132 133 134 135 136 137 138 139 140 141 142 143 144 145 146 147 148 149 150 151 152 153 154 155 156 157 158