Ergebnis 1 bis 1 von 1

Thema: Eiga Precure All-Stars DX3 Mirai ni Todoke! Sekai o Tsunagu Niji-iro no Hana [Jap-Dub][Ger-Sub][720p][BluRay]-MGS

Dieser Thread wurde noch nicht bewertet. Bewerte ihn doch, wenn er dir gefällt!
  1. #1
    United we Stand Avatar von 00Ryuji00
    Registriert seit
    Oct 2012
    Beiträge
    3.896
    Punkte
    99.519
    Errungenschaften:
    TomodachisGang LeaderHikikomoriTagger Amateur50000 Erfahrungspunkte

    Eiga Precure All-Stars DX3 Mirai ni Todoke! Sekai o Tsunagu Niji-iro no Hana [Jap-Dub][Ger-Sub][720p][BluRay]-MGS


    Eiga Precure All-Stars DX3 Mirai ni Todoke! Sekai o Tsunagu Niji-iro no Hana
    映画 プリキュアオールスターズDX3 未来にとどけ! 世界をつなぐ☆虹色の花






    Kurzbeschreibung:
    Zitat Zitat von AniSearch.com
    Als Hibiki und Kanade in einem großen Einkaufszentrum unterwegs sind, fangen die verschiedenen Welten der Feen plötzlich an, mit der Erde zu verschmelzen. Eine dunkle Macht hat es auf die Prisma Blume abgesehen, welche die verschiedenen Welten miteinander verbindet. Sämtliche Precures müssen sich altbekannten Gegnern stellen und letztendlich eine schwere Entscheidung treffen.


    Spieldauer: 75min
    Genre: Action
    Nebengenres: Action, Magical Girl, Weiblich
    Jahr: 2011
    Sprache: Japanisch
    Untertitel: Deutsch
    Größe pro Folge: ~1.93 GiB
    Episodenanzahl: 1/1
    Format: MP4
    Auflösung: 720p (16:9)
    Videocodec: x264 (AVC)
    Audiocodec: AAC
    Releasegruppe: MGS
    Hoster: Share-Online, Uploaded


    MediaInfo
    Code:
    
    Format                                   : MPEG-4
    Format profile                           : Base Media
    Codec ID                                 : isom
    File size                                : 1.93 GiB
    Duration                                 : 1h 11mn
    Overall bit rate mode                    : Variable
    Overall bit rate                         : 3 865 Kbps
    Encoded date                             : UTC 2011-10-04 21:16:12
    Tagged date                              : UTC 2011-10-04 21:16:12
    
    Video
    ID                                       : 1
    Format                                   : AVC
    Format/Info                              : Advanced Video Codec
    Format profile                           : [email protected]
    Format settings, CABAC                   : Yes
    Format settings, ReFrames                : 8 frames
    Codec ID                                 : avc1
    Codec ID/Info                            : Advanced Video Coding
    Duration                                 : 1h 11mn
    Bit rate                                 : 3 734 Kbps
    Maximum bit rate                         : 37.9 Mbps
    Width                                    : 1 280 pixels
    Height                                   : 720 pixels
    Display aspect ratio                     : 16:9
    Frame rate mode                          : Constant
    Frame rate                               : 23.976 fps
    Color space                              : YUV
    Chroma subsampling                       : 4:2:0
    Bit depth                                : 8 bits
    Scan type                                : Progressive
    Bits/(Pixel*Frame)                       : 0.169
    Stream size                              : 1.86 GiB (97%)
    Writing library                          : x264 core 68 r1183M f21daff
    Encoding settings                        : cabac=1 / ref=8 / deblock=1:1:1 / analyse=0x3:0x133 / me=umh / subme=7 / psy_rd=0.6:0.0 / mixed_ref=1 / me_range=16 / chroma_me=1 / trellis=2 / 8x8dct=1 / cqm=0 / deadzone=21,11 / chroma_qp_offset=-2 / threads=6 / nr=0 / decimate=1 / mbaff=0 / bframes=16 / b_pyramid=1 / b_adapt=1 / b_bias=0 / direct=3 / wpredb=0 / keyint=250 / keyint_min=25 / scenecut=40 / rc=2pass / bitrate=3734 / ratetol=1.0 / qcomp=0.60 / qpmin=10 / qpmax=51 / qpstep=4 / cplxblur=20.0 / qblur=0.5 / ip_ratio=1.40 / pb_ratio=1.30 / aq=0
    Encoded date                             : UTC 2011-10-04 17:59:16
    Tagged date                              : UTC 2011-10-04 21:17:51
    
    Audio
    ID                                       : 2
    Format                                   : AAC
    Format/Info                              : Advanced Audio Codec
    Format profile                           : HE-AAC / LC
    Codec ID                                 : 40
    Duration                                 : 1h 11mn
    Bit rate mode                            : Variable
    Bit rate                                 : 128 Kbps
    Maximum bit rate                         : 150 Kbps
    Channel(s)                               : 2 channels
    Channel positions                        : Front: L R
    Sampling rate                            : 48.0 KHz / 24.0 KHz
    Compression mode                         : Lossy
    Stream size                              : 65.4 MiB (3%)
    Encoded date                             : UTC 2011-10-04 21:17:50
    Tagged date                              : UTC 2011-10-04 21:17:51
    
    





    Geschützter Bereich - Bedanke dich beim Poster, um den Bereich sehen zu können
    Hier erfährst Du wie Du Dich bedanken kannst oder werde jetzt Premium Mitglied ab einer Spende von 5€ und erhalte sofortigen Zugriff auf den Downloadbereich!

    [Links sind nur für registrierte und aktivierte Nutzer sichtbar. Klicke hier um dich zu registrieren.]
    Geändert von 00Ryuji00 (30. April 2016 um 17:07 Uhr)
    !!!Alle Anliegen bezüglich Uploads werden nur mit direktem Threadlink zum Angebot bearbeitet!!!

    Re-Uploadanfragen nur per PN - Ihr könnt mir auch Listen schicken

    Re-Uploads erfolgen meist innerhalb 24h, kann aber auch bis zu 7 Tage dauern

    [Links sind nur für registrierte und aktivierte Nutzer sichtbar. Klicke hier um dich zu registrieren.] | [Links sind nur für registrierte und aktivierte Nutzer sichtbar. Klicke hier um dich zu registrieren.] | >[Links sind nur für registrierte und aktivierte Nutzer sichtbar. Klicke hier um dich zu registrieren.]<
    [Links sind nur für registrierte und aktivierte Nutzer sichtbar. Klicke hier um dich zu registrieren.]

  2. 2 Benutzer sagen Danke:

    midnighter (1. February 2016),Ronae (2. January 2016)

Lesezeichen

Berechtigungen

  • Neue Themen erstellen: Nein
  • Themen beantworten: Nein
  • Anhänge hochladen: Nein
  • Beiträge bearbeiten: Nein
  •  

1 2 3 4 5 6 7 8 9 10 11 12 13 14 15 16 17 18 19 20 21 22 23 24 25 26 27 28 29 30 31 32 33 34 35 36 37 38 39 40 41 42 43 44 45 46 47 48 49 50 51 52 53 54 55 56 57 58 59 60 61 62 63 64 65 66 67 68 69 70 71 72 73 74 75 76 77 78 79 80 81 82 83 84 85 86 87 88 89 90 91 92 93 94 95 96 97 98 99 100 101 102 103 104 105 106 107 108 109 110 111 112 113 114 115 116 117 118 119 120 121 122 123 124 125 126 127 128 129 130 131 132 133 134 135 136 137 138 139 140 141 142 143 144 145 146 147 148 149 150 151 152 153 154 155 156 157 158