Ergebnis 1 bis 1 von 1

Thema: Gekijouban Kyoukai no Kanata: I`ll Be Here [Jap-Dub][Ger-Sub][720p][HDTV] - GS

Dieser Thread wurde durchschnittlich mit 5 Sternen bewertet, wobei 1 Stern die schlechteste und 5 Sterne die beste Bewertung ist. Es haben insgesamt 1 Mitglieder eine Bewertung abgegeben.

  1. #1
    Kami-sama Avatar von galudo
    Registriert seit
    Mar 2015
    Beiträge
    1.371
    Punkte
    26.062
    Errungenschaften:
    TomodachisTagger ProfiHyperaktivSenpaiGang Leader

    Gekijouban Kyoukai no Kanata: I`ll Be Here [Jap-Dub][Ger-Sub][720p][HDTV] - GS

    Gekijouban Kyoukai no Kanata: I`ll Be Here
    劇場版 境界の彼方-I`LL BE HERE-
    Beyond the Boundary Movie



    Kurzbeschreibung
    Film zum Anime Kyoukai no Kanata.
    Erster Film eines zweiteiligen Filmprojekts. Dieser Film stellt eine Zusammenfassung der TV-Serie dar.
    Format: MP4
    Sprache: Japanisch
    Untertitel: Deutsch
    Genre: Action, Fantasy
    Größe: ~ 1,24 GB
    Dauer: ~ 82 Minuten
    Jahr: 2015
    Video: 720p
    Source: HDTV
    Subgroup / Releasegroup: Grim-Subs

    Hoster: Share-Online | Uploaded
    Passwort: siehe unten


    Datei-Info
    Spoiler
    Code:
    General
    Complete name                  : Kyoukai no Kanata Movie -I'll Be Here- Kako-hen.mp4
    Format                         : MPEG-4
    Format profile                 : Base Media
    Codec ID                       : isom
    File size                      : 1.22 GiB
    Duration                       : 1h 22mn
    Overall bit rate mode          : Variable
    Overall bit rate               : 2 137 Kbps
    Encoded date                   : UTC 2015-10-08 22:33:05
    Tagged date                    : UTC 2015-10-08 22:33:05
    Writing application            : FormatFactory : www.pcfreetime.com
    
    Video
    ID                             : 1
    Format                         : AVC
    Format/Info                    : Advanced Video Codec
    Format profile                 : [email protected]
    Format settings, CABAC         : No
    Format settings, ReFrames      : 1 frame
    Codec ID                       : avc1
    Codec ID/Info                  : Advanced Video Coding
    Duration                       : 1h 22mn
    Bit rate                       : 2 000 Kbps
    Maximum bit rate               : 18.7 Mbps
    Width                          : 1 280 pixels
    Height                         : 720 pixels
    Display aspect ratio           : 16:9
    Frame rate mode                : Constant
    Frame rate                     : 24.000 fps
    Color space                    : YUV
    Chroma subsampling             : 4:2:0
    Bit depth                      : 8 bits
    Scan type                      : Progressive
    Bits/(Pixel*Frame)             : 0.090
    Stream size                    : 1.15 GiB (94%)
    Writing library                : x264 core 116 r2019 9cc407d
    Encoding settings              : cabac=0 / ref=1 / deblock=1:0:0 / analyse=0x3:0x113 / me=hex / subme=7 / psy=1 / psy_rd=1.00:0.00 / mixed_ref=0 / me_range=16 / chroma_me=1 / trellis=1 / 8x8dct=1 / cqm=0 / deadzone=21,11 / fast_pskip=1 / chroma_qp_offset=-2 / threads=6 / sliced_threads=0 / nr=0 / decimate=1 / interlaced=0 / bluray_compat=0 / constrained_intra=0 / bframes=0 / weightp=2 / keyint=250 / keyint_min=24 / scenecut=40 / intra_refresh=0 / rc_lookahead=40 / rc=abr / mbtree=1 / bitrate=2000 / ratetol=1.0 / qcomp=0.60 / qpmin=0 / qpmax=69 / qpstep=4 / ip_ratio=1.40 / aq=1:1.00
    Encoded date                   : UTC 2015-10-08 22:33:05
    Tagged date                    : UTC 2015-10-08 22:33:12
    
    Audio
    ID                             : 2
    Format                         : AAC
    Format/Info                    : Advanced Audio Codec
    Format profile                 : LC
    Codec ID                       : 40
    Duration                       : 1h 22mn
    Bit rate mode                  : Variable
    Bit rate                       : 125 Kbps
    Maximum bit rate               : 288 Kbps
    Channel(s)                     : 2 channels
    Channel positions              : Front: L R
    Sampling rate                  : 44.1 KHz
    Compression mode               : Lossy
    Stream size                    : 73.6 MiB (6%)
    Encoded date                   : UTC 2015-10-08 22:33:11
    Tagged date                    : UTC 2015-10-08 22:33:12
    


    2 Parts


    || Download & Passwort ||
    Geschützter Bereich - Bedanke dich beim Poster, um den Bereich sehen zu können
    Hier erfährst Du wie Du Dich bedanken kannst oder werde jetzt Premium Mitglied ab einer Spende von 5€ und erhalte sofortigen Zugriff auf den Downloadbereich!

    Geändert von galudo (21. April 2016 um 18:19 Uhr)
    SUPPORT UND REUP ANFRAGEN NUR >> [Links sind nur für registrierte und aktivierte Nutzer sichtbar. Klicke hier um dich zu registrieren.] <<
    Bitte IMMER den Thread-Link mitschicken.

  2. 69 Benutzer sagen Danke:

    Anzeigen

    Akio (23. November 2015),Alaric (4. November 2015),Alucard1412 (13. March 2016),Angel86 (1. November 2015),ani212 (1. November 2015),Atmozfear (15. October 2015),Bandillo64 (23. February 2016),Bloodyair (31. December 2015),Bruglin (12. October 2015),chris1989 (23. October 2016),CKSI (17. October 2015),Cloud9019 (31. October 2015),data_ghoul (7. February 2016),david21 (14. October 2015),Dylan (12. October 2015),enemen (18. October 2015),foiderbua (12. October 2015),freakwatcher (11. October 2015),funkythong (28. October 2015),Geisterhaendler (19. March 2016),happydrop99 (18. October 2015),Hi im Shini (22. November 2015),Holzmodem (6. December 2016),I3asti (22. January 2016),infinest (26. March 2016),Kokujou (19. March 2016),KrachbumAlex (13. October 2015),KVI512 (14. February 2016),Lautrerbomber (1. March 2016),LB31 (12. November 2015),Loki92 (2. January 2016),Lunacy (14. October 2015),Magicmanx (31. January 2016),manuel4193 (11. October 2015),MattDeox (1. February 2016),Meistermagier (15. November 2015),meyer (18. October 2015),midnighter (12. October 2015),Mikyo (20. December 2015),Mosa (23. January 2016),nemo (6. December 2015),neocx (12. October 2015),NLHTeddyNLH (30. October 2015),OLI10 (12. January 2016),OtakuTim (1. November 2015),PaMon1904 (6. July 2016),passi (2. February 2016),Paulus (30. December 2015),pflaffy (3. November 2015),prinzvegeta (1. January 2016),Reiko (12. October 2015),rekiznuh1 (27. November 2015),Sherry (14. October 2015),Shi No Ryu (13. October 2015),SIMarcel (1. November 2015),SONNYxq (11. October 2015),Soranix06 (12. February 2016),Sou-chan (16. October 2015),Spark (24. January 2016),Sukor924 (13. February 2016),TaigaAisaka (17. April 2016),Tekk (12. October 2015),Terrorhasii.x3 (28. September 2016),Tidus18 (20. October 2015),TrickSeven (29. November 2015),Tschu23 (13. October 2015),VNRG (14. October 2015),WaRRioR (27. February 2016),xGate (3. December 2015)

Stichworte

Lesezeichen

Berechtigungen

  • Neue Themen erstellen: Nein
  • Themen beantworten: Nein
  • Anhänge hochladen: Nein
  • Beiträge bearbeiten: Nein
  •  

1 2 3 4 5 6 7 8 9 10 11 12 13 14 15 16 17 18 19 20 21 22 23 24 25 26 27 28 29 30 31 32 33 34 35 36 37 38 39 40 41 42 43 44 45 46 47 48 49 50 51 52 53 54 55 56 57 58 59 60 61 62 63 64 65 66 67 68 69 70 71 72 73 74 75 76 77 78 79 80 81 82 83 84 85 86 87 88 89 90 91 92 93 94 95 96 97 98 99 100 101 102 103 104 105 106 107 108 109 110 111 112 113 114 115 116 117 118 119 120 121 122 123 124 125 126 127 128 129 130 131 132 133 134 135 136 137 138 139 140 141 142 143 144 145 146 147 148 149 150 151 152 153 154 155 156 157 158