Ergebnis 1 bis 1 von 1

Thema: Gekijouban Mahou Sensei Negima! Anime Final [Jap-Dub][Ger-Sub][480p][DVDRip]

Dieser Thread wurde noch nicht bewertet. Bewerte ihn doch, wenn er dir gefällt!
  1. #1
    United we Stand Avatar von 00Ryuji00
    Registriert seit
    Oct 2012
    Beiträge
    3.902
    Punkte
    99.938
    Errungenschaften:
    TomodachisGang LeaderHikikomoriTagger Amateur50000 Erfahrungspunkte

    Gekijouban Mahou Sensei Negima! Anime Final [Jap-Dub][Ger-Sub][480p][DVDRip]

    Gekijouban Mahou Sensei Negima! Anime Final
    劇場版 魔法先生ネギま! ANIME FINAL






    Kurzbeschreibung:
    Gekijouban Mahou Sensei Negima! Anime Final spielt als alternatives Ende zum eigentlichen Ausgang des Mangas.

    Nach den Ereignissen in der "Magischen Welt" kehren Negi und seine Schülerinnen zurück auf die Erde und zur Mahora, doch auch dort wartet bereits das nächste und wahrscheinlich komplizierteste Problem auf ihn. Negi hat nur einen Tag, um sich endgültig für eine Partnerin zu entscheiden, woraufhin alle anderen, die er nicht wählt, die Erinnerung an ihn und die Magie verlieren. Als die Mädchen davon erfahren, reagiert jede auf ihre eigene Art und Weise darauf. Während einige den Abend zusammen verbringen, wollen andere sich nicht die Chance auf einen letzten Kampf mit Negi nehmen lassen. Der Druck auf Negi, sich für eines der Mädchen zu entscheiden und damit ein "Magister Magi" zu werden, verstärkt sich als sein 30-Jahres-Plan ein abruptes Ende findet und der Mars im Begriff ist auf die Erde zu stürzen, was beide Welten zerstören würde.


    Sprache: Japanisch
    Untertitel: Deutsch
    Spieldauer: 1h 16min
    Format: .mkv
    Auflösung: 480p
    Codec: x264
    Gruppe: NG & C-Subs
    Hoster: Share-Online ; Uploaded


    Datei Info:
    Spoiler

    Code:
    
    
    Format                                   : Matroska
    Format version                           : Version 2
    File size                                : 896 MiB
    Duration                                 : 1h 16mn
    Overall bit rate                         : 1 629 Kbps
    Encoded date                             : UTC 2012-12-06 08:33:41
    Writing application                      : mkvmerge v5.6.0 ('Kenya Kane') built on May 27 2012 16:44:04
    Writing library                          : libebml v1.2.3 + libmatroska v1.3.0
    
    Video
    ID                                       : 1
    Format                                   : AVC
    Format/Info                              : Advanced Video Codec
    Format profile                           : [email protected]
    Format settings, CABAC                   : Yes
    Format settings, ReFrames                : 12 frames
    Muxing mode                              : Header stripping
    Codec ID                                 : V_MPEG4/ISO/AVC
    Duration                                 : 1h 16mn
    Bit rate                                 : 1 148 Kbps
    Width                                    : 848 pixels
    Height                                   : 480 pixels
    Display aspect ratio                     : 16:9
    Frame rate mode                          : Constant
    Frame rate                               : 23.976 fps
    Color space                              : YUV
    Chroma subsampling                       : 4:2:0
    Bit depth                                : 8 bits
    Scan type                                : Progressive
    Bits/(Pixel*Frame)                       : 0.118
    Stream size                              : 632 MiB (71%)
    Writing library                          : x264 core 122 r2184 5c85e0a
    Encoding settings                        : cabac=1 / ref=12 / deblock=1:0:-1 / analyse=0x3:0x133 / me=umh / subme=10 / psy=1 / psy_rd=0.80:0.20 / mixed_ref=1 / me_range=24 / chroma_me=1 / trellis=2 / 8x8dct=1 / cqm=0 / deadzone=21,11 / fast_pskip=1 / chroma_qp_offset=-3 / threads=9 / sliced_threads=0 / nr=0 / decimate=0 / interlaced=0 / bluray_compat=0 / constrained_intra=0 / bframes=16 / b_pyramid=2 / b_adapt=2 / b_bias=0 / direct=3 / weightb=1 / open_gop=0 / weightp=2 / keyint=240 / keyint_min=24 / scenecut=40 / intra_refresh=0 / rc_lookahead=80 / rc=crf / mbtree=1 / crf=17.0 / qcomp=0.60 / qpmin=0 / qpmax=69 / qpstep=4 / ip_ratio=1.40 / aq=2:0.90
    Language                                 : English
    Default                                  : Yes
    Forced                                   : No
    
    Audio
    ID                                       : 2
    Format                                   : AC-3
    Format/Info                              : Audio Coding 3
    Mode extension                           : CM (complete main)
    Format settings, Endianness              : Big
    Muxing mode                              : Header stripping
    Codec ID                                 : A_AC3
    Duration                                 : 1h 16mn
    Bit rate mode                            : Constant
    Bit rate                                 : 448 Kbps
    Channel count                            : 6 channels
    Channel positions                        : Front: L C R, Side: L R, LFE
    Sampling rate                            : 48.0 KHz
    Bit depth                                : 16 bits
    Compression mode                         : Lossy
    Stream size                              : 246 MiB (28%)
    Default                                  : Yes
    Forced                                   : No
    
    






    Geschützter Bereich - Bedanke dich beim Poster, um den Bereich sehen zu können
    Hier erfährst Du wie Du Dich bedanken kannst oder werde jetzt Premium Mitglied ab einer Spende von 5€ und erhalte sofortigen Zugriff auf den Downloadbereich!

    Geändert von 00Ryuji00 (3. May 2016 um 15:09 Uhr)
    !!!Alle Anliegen bezüglich Uploads werden nur mit direktem Threadlink zum Angebot bearbeitet!!!

    Re-Uploadanfragen nur per PN - Ihr könnt mir auch Listen schicken

    Re-Uploads erfolgen meist innerhalb 24h, kann aber auch bis zu 7 Tage dauern

    [Links sind nur für registrierte und aktivierte Nutzer sichtbar. Klicke hier um dich zu registrieren.] | [Links sind nur für registrierte und aktivierte Nutzer sichtbar. Klicke hier um dich zu registrieren.] | >[Links sind nur für registrierte und aktivierte Nutzer sichtbar. Klicke hier um dich zu registrieren.]<
    [Links sind nur für registrierte und aktivierte Nutzer sichtbar. Klicke hier um dich zu registrieren.]

  2. 8 Benutzer sagen Danke:

    Akio (13. August 2015),Antipott (7. March 2016),Cooky1988 (27. August 2015),Hisamaki (14. May 2016),Ignasum (31. August 2015),Kokujou (4. August 2015),midnighter (5. August 2015),prinzvegeta (2. January 2016)

Lesezeichen

Berechtigungen

  • Neue Themen erstellen: Nein
  • Themen beantworten: Nein
  • Anhänge hochladen: Nein
  • Beiträge bearbeiten: Nein
  •  

1 2 3 4 5 6 7 8 9 10 11 12 13 14 15 16 17 18 19 20 21 22 23 24 25 26 27 28 29 30 31 32 33 34 35 36 37 38 39 40 41 42 43 44 45 46 47 48 49 50 51 52 53 54 55 56 57 58 59 60 61 62 63 64 65 66 67 68 69 70 71 72 73 74 75 76 77 78 79 80 81 82 83 84 85 86 87 88 89 90 91 92 93 94 95 96 97 98 99 100 101 102 103 104 105 106 107 108 109 110 111 112 113 114 115 116 117 118 119 120 121 122 123 124 125 126 127 128 129 130 131 132 133 134 135 136 137 138 139 140 141 142 143 144 145 146 147 148 149 150 151 152 153 154 155 156 157 158